<?xml version="1.0" standalone="no"?>
<!DOCTYPE svg PUBLIC "-//W3C//DTD SVG 1.1//EN" "http://www.w3.org/Graphics/SVG/1.1/DTD/svg11.dtd" >
<svg xmlns="http://www.w3.org/2000/svg" xmlns:xlink="http://www.w3.org/1999/xlink" version="1.1">
<metadata>
Created by FontForge 20201107 at Thu Apr 15 11:48:30 2021
 By Unknown
Copyright \(c\) 2019 by Roger Gaillard. All rights reserved.
</metadata>
<defs>
<font id="ESRebondGrotesqueTRIAL-Semibold" horiz-adv-x="599" >
  <font-face 
    font-family="ES Rebond Grotesque TRIAL SmBd"
    font-weight="600"
    font-stretch="normal"
    units-per-em="1000"
    panose-1="0 0 7 0 0 0 0 0 0 0"
    ascent="800"
    descent="-200"
    x-height="500"
    cap-height="700"
    bbox="0 -214 1003 718"
    underline-thickness="50"
    underline-position="-100"
    stemh="102"
    stemv="121"
    unicode-range="U+0020-F8FF"
  />
<missing-glyph horiz-adv-x="450" 
d="M84 700h285v-900h-285v900zM300 610v30h-149v-30h59v-33h-60v-30h150v30h-60v33h60zM240 461v63h-90v-94h150v31h-60zM180 493h30v-32h-30v32zM300 376v30h-150v-30h60v-33h-60v-30h90v63h60zM300 262v90h-30v-60h-120v-30h150zM300 140v102h-90v-50h30v20h30v-42h-90v72
h-30v-102h150zM300 -16v102h-150v-102h150zM180 57h90v-43h-90v43zM300 -66v30h-150v-30h63l-63 -42v-30h150v30h-92l63 42h29z" />
    <glyph glyph-name=".notdef" horiz-adv-x="450" 
d="M84 700h285v-900h-285v900zM300 610v30h-149v-30h59v-33h-60v-30h150v30h-60v33h60zM240 461v63h-90v-94h150v31h-60zM180 493h30v-32h-30v32zM300 376v30h-150v-30h60v-33h-60v-30h90v63h60zM300 262v90h-30v-60h-120v-30h150zM300 140v102h-90v-50h30v20h30v-42h-90v72
h-30v-102h150zM300 -16v102h-150v-102h150zM180 57h90v-43h-90v43zM300 -66v30h-150v-30h63l-63 -42v-30h150v30h-92l63 42h29z" />
    <glyph glyph-name="space" unicode=" " horiz-adv-x="242" 
 />
    <glyph glyph-name="A" unicode="A" horiz-adv-x="714" 
d="M706 0h-126l-60 157h-322l-59 -157h-131l276 700h147zM359 583l-122 -324h245z" />
    <glyph glyph-name="B" unicode="B" horiz-adv-x="706" 
d="M525 379c88 -26 138 -87 138 -176c0 -125 -97 -203 -260 -203h-321v700h320c136 0 215 -64 215 -175c0 -72 -33 -121 -92 -146zM492 509c0 57 -33 89 -90 89h-199v-181h199c57 0 90 35 90 92zM203 102h199c86 0 136 41 136 110c0 66 -49 105 -132 105h-203v-215z" />
    <glyph glyph-name="C" unicode="C" horiz-adv-x="760" 
d="M400 -14c-212 0 -354 156 -354 365c0 214 147 363 353 363c194 0 327 -132 298 -308h-125c19 122 -54 202 -172 202c-137 0 -229 -111 -229 -257c0 -151 95 -259 230 -259c108 0 181 71 200 169h128c-23 -164 -150 -275 -329 -275z" />
    <glyph glyph-name="D" unicode="D" horiz-adv-x="728" 
d="M82 700h272c201 0 338 -139 338 -350c0 -209 -134 -350 -336 -350h-274v700zM203 102h151c125 0 213 97 213 250c0 148 -83 246 -213 246h-151v-496z" />
    <glyph glyph-name="E" unicode="E" horiz-adv-x="621" 
d="M203 318v-216h373v-102h-494v700h484v-102h-363v-178h310v-102h-310z" />
    <glyph glyph-name="F" unicode="F" horiz-adv-x="591" 
d="M565 700v-102h-362v-203h309v-102h-309v-293h-121v700h483z" />
    <glyph glyph-name="G" unicode="G" horiz-adv-x="760" 
d="M392 369h340v-102h-128c40 -22 63 -57 63 -104c0 -99 -106 -177 -264 -177c-216 0 -357 146 -357 366c0 215 135 362 350 362c170 0 290 -91 275 -259h-124c12 103 -56 153 -152 153c-138 0 -224 -102 -224 -256c0 -157 90 -260 230 -260c83 0 141 35 141 90
c0 52 -54 85 -150 85v102z" />
    <glyph glyph-name="H" unicode="H" horiz-adv-x="757" 
d="M554 419v281h121v-700h-121v317h-351v-317h-121v700h121v-281h351z" />
    <glyph glyph-name="I" unicode="I" horiz-adv-x="284" 
d="M203 0h-121v700h121v-700z" />
    <glyph glyph-name="J" unicode="J" horiz-adv-x="473" 
d="M205 -14c-150 0 -224 96 -184 239h117c-24 -85 2 -134 70 -134c76 0 88 61 88 116v493h121v-479c0 -89 -26 -235 -212 -235z" />
    <glyph glyph-name="K" unicode="K" horiz-adv-x="734" 
d="M726 0h-149l-259 341l-115 -110v-231h-121v700h121v-330l338 330h150l-291 -280z" />
    <glyph glyph-name="L" unicode="L" horiz-adv-x="601" 
d="M203 700v-598h373v-102h-494v700h121z" />
    <glyph glyph-name="M" unicode="M" horiz-adv-x="920" 
d="M462 139l175 561h202v-700h-121v594l-194 -594h-127l-194 587v-587h-121v700h203z" />
    <glyph glyph-name="N" unicode="N" horiz-adv-x="749" 
d="M546 148v552h121v-700h-168l-296 568v-568h-121v700h176z" />
    <glyph glyph-name="O" unicode="O" horiz-adv-x="797" 
d="M399 -14c-207 0 -353 151 -353 365c0 213 146 363 353 363s352 -150 352 -363c0 -214 -145 -365 -352 -365zM399 92c134 0 227 105 227 258s-93 258 -227 258c-135 0 -228 -105 -228 -257c0 -153 93 -259 228 -259z" />
    <glyph glyph-name="P" unicode="P" horiz-adv-x="661" 
d="M82 700h318c149 0 235 -75 235 -208c0 -134 -86 -213 -236 -213h-196v-279h-121v700zM203 381h197c71 0 110 40 110 110s-39 107 -110 107h-197v-217z" />
    <glyph glyph-name="Q" unicode="Q" horiz-adv-x="797" 
d="M751 351c0 -224 -164 -353 -363 -405c120 -7 221 -22 301 -40v-102c-152 33 -367 55 -554 55v102c104 2 205 17 290 49c-16 -2 -31 -3 -47 -3c-185 0 -332 137 -332 346c0 208 144 361 353 361c207 0 352 -150 352 -363zM171 353c0 -151 96 -252 229 -252
c132 0 226 99 226 250c0 150 -92 257 -227 257s-228 -105 -228 -255z" />
    <glyph glyph-name="R" unicode="R" horiz-adv-x="712" 
d="M521 322c99 -51 134 -174 145 -322h-121c-12 171 -42 284 -157 284h-185v-284h-121v700h326c153 0 241 -76 241 -199c0 -89 -47 -151 -128 -179zM203 598v-216h204c76 0 118 38 118 108s-42 108 -118 108h-204z" />
    <glyph glyph-name="S" unicode="S" horiz-adv-x="681" 
d="M347 -14c-182 0 -297 99 -286 249h122c-6 -91 57 -145 166 -145c93 0 151 40 151 104c0 171 -427 32 -427 304c0 135 105 216 266 216c177 0 285 -100 264 -247h-121c16 90 -45 143 -146 143c-85 0 -140 -37 -140 -100c0 -170 428 -36 428 -305
c0 -138 -112 -219 -277 -219z" />
    <glyph glyph-name="T" unicode="T" horiz-adv-x="649" 
d="M26 700h597v-102h-238v-598h-121v598h-238v102z" />
    <glyph glyph-name="U" unicode="U" horiz-adv-x="735" 
d="M368 -14c-195 0 -299 111 -299 323v391h122v-384c0 -150 58 -222 176 -222c119 0 177 72 177 222v384h121v-391c0 -212 -102 -323 -297 -323z" />
    <glyph glyph-name="V" unicode="V" horiz-adv-x="672" 
d="M338 135l198 565h128l-260 -700h-133l-263 700h131z" />
    <glyph glyph-name="W" unicode="W" horiz-adv-x="1011" 
d="M719 135l156 565h128l-208 -700h-143l-147 569l-143 -569h-144l-210 700h129l157 -566l139 566h146z" />
    <glyph glyph-name="X" unicode="X" horiz-adv-x="697" 
d="M427 364l262 -364h-138l-203 289l-206 -289h-134l263 364l-238 336h138l180 -255l181 255h134z" />
    <glyph glyph-name="Y" unicode="Y" horiz-adv-x="669" 
d="M527 700h135l-264 -410v-290h-121v290l-269 410h140l187 -305z" />
    <glyph glyph-name="Z" unicode="Z" horiz-adv-x="617" 
d="M571 598l-394 -496h404v-102h-545v102l393 496h-379v102h521v-102z" />
    <glyph glyph-name="Q.ss07" horiz-adv-x="797" 
d="M710 -112c65 0 126 8 218 31v-102c-89 -23 -154 -31 -223 -31c-206 0 -318 76 -564 77c-23 0 -51 -1 -85 -5v103c150 4 266 18 356 47c-9 -1 -17 -1 -26 -1c-184 0 -340 133 -340 348c0 207 146 359 353 359c205 0 352 -148 352 -364c0 -230 -166 -359 -407 -405
c136 -15 224 -57 366 -57zM171 353c0 -151 96 -252 229 -252c132 0 226 99 226 250c0 150 -92 257 -227 257s-228 -105 -228 -255z" />
    <glyph glyph-name="a" unicode="a" horiz-adv-x="532" 
d="M266 514c146 0 220 -91 220 -230v-284h-105v87c-37 -64 -98 -101 -180 -101c-106 0 -172 62 -172 149c0 101 88 162 229 162c39 0 79 -5 114 -13c0 76 -27 131 -107 131c-60 0 -97 -30 -85 -86h-115c-27 111 71 185 201 185zM224 77c73 0 133 47 152 120
c-33 11 -73 17 -109 17c-82 0 -122 -30 -122 -76c0 -40 30 -61 79 -61z" />
    <glyph glyph-name="b" unicode="b" 
d="M340 514c133 0 227 -106 227 -264c0 -159 -95 -264 -228 -264c-75 0 -134 34 -171 91v-77h-114v700h114v-278c37 58 96 92 172 92zM307 86c86 0 141 65 141 164c0 100 -56 164 -140 164c-85 0 -141 -65 -141 -164s56 -164 140 -164z" />
    <glyph glyph-name="c" unicode="c" horiz-adv-x="560" 
d="M287 -14c-153 0 -255 106 -255 264c0 159 101 264 259 264s255 -106 218 -258h-115c19 99 -22 158 -104 158c-86 0 -139 -65 -139 -164s54 -164 137 -164c60 0 102 36 123 92h123c-24 -104 -108 -192 -247 -192z" />
    <glyph glyph-name="d" unicode="d" horiz-adv-x="595" 
d="M427 426v274h114v-700h-114v74c-38 -56 -97 -88 -170 -88c-132 0 -225 105 -225 264c0 158 92 264 225 264c73 0 132 -32 170 -88zM292 86c84 0 140 65 140 164s-56 164 -140 164c-85 0 -141 -65 -141 -164s56 -164 141 -164z" />
    <glyph glyph-name="e" unicode="e" horiz-adv-x="562" 
d="M406 158h124c-29 -105 -118 -172 -243 -172c-156 0 -255 105 -255 264s100 264 258 264c176 0 267 -132 219 -296h-356c10 -83 56 -132 136 -132c56 0 100 26 117 72zM288 418c-75 0 -121 -42 -133 -119h246c7 72 -34 119 -113 119z" />
    <glyph glyph-name="f" unicode="f" horiz-adv-x="409" 
d="M394 555h-100c13 39 4 64 -23 64s-40 -23 -40 -61v-58h163v-99h-163v-401h-114v401h-95v99h95v58c0 98 56 156 156 156c106 0 147 -66 121 -159z" />
    <glyph glyph-name="g" unicode="g" horiz-adv-x="547" 
d="M327 112c109 -13 179 -72 179 -158c0 -100 -98 -168 -232 -168c-131 0 -231 66 -252 173h129c9 -45 56 -73 122 -73s114 27 114 72s-46 77 -131 77c-45 0 -100 -9 -148 -21v85c80 11 144 33 191 62c-18 -4 -38 -6 -60 -6c-122 0 -203 68 -203 173c0 110 91 185 227 185
c70 0 127 -20 167 -53c10 28 7 70 0 102h93c10 -58 -9 -122 -50 -157c11 -22 17 -48 17 -75c0 -87 -59 -165 -163 -218zM155 326c0 -53 43 -88 108 -88s108 35 108 88s-42 88 -108 88c-64 0 -108 -35 -108 -88z" />
    <glyph glyph-name="h" unicode="h" horiz-adv-x="545" 
d="M334 514c111 0 165 -82 165 -213v-301h-114v301c0 69 -28 114 -90 114c-74 0 -127 -68 -127 -170v-245h-114v700h114v-292c29 66 89 106 166 106z" />
    <glyph glyph-name="i" unicode="i" horiz-adv-x="233" 
d="M117 572c-41 0 -73 32 -73 73s32 73 73 73s73 -32 73 -73s-32 -73 -73 -73zM173 0h-114v500h114v-500z" />
    <glyph glyph-name="j" unicode="j" horiz-adv-x="289" 
d="M173 572c-41 0 -73 32 -73 73s32 73 73 73s73 -32 73 -73s-32 -73 -73 -73zM78 -214c-31 0 -57 6 -78 16v99c18 -10 43 -15 61 -15c54 0 54 54 54 95v519h114v-519c0 -48 0 -195 -151 -195z" />
    <glyph glyph-name="k" unicode="k" horiz-adv-x="567" 
d="M394 188c69 -32 122 -96 143 -188h-132c-16 91 -74 146 -149 153v78c80 0 131 44 131 103c0 51 -38 79 -88 79c-77 0 -131 -66 -131 -168v-245h-114v700h114v-293c30 67 92 107 172 107c102 0 166 -65 166 -160c0 -77 -43 -137 -112 -166z" />
    <glyph glyph-name="l" unicode="l" horiz-adv-x="233" 
d="M173 0h-114v700h114v-700z" />
    <glyph glyph-name="m" unicode="m" horiz-adv-x="840" 
d="M637 514c103 0 157 -74 157 -196v-318h-114v306c0 64 -27 107 -81 107c-69 0 -117 -66 -117 -168v-245h-114v306c0 65 -27 109 -82 109c-67 0 -118 -67 -118 -171v-244h-114v500h114v-89c26 59 82 103 159 103c73 0 126 -41 147 -106c29 66 88 106 163 106z" />
    <glyph glyph-name="n" unicode="n" horiz-adv-x="545" 
d="M338 514c161 0 161 -159 161 -234v-280h-114v277c0 57 0 138 -88 138c-76 0 -129 -68 -129 -170v-245h-114v500h114v-92c33 66 94 106 170 106z" />
    <glyph glyph-name="o" unicode="o" horiz-adv-x="573" 
d="M287 -14c-153 0 -255 106 -255 264s102 264 255 264c152 0 255 -106 255 -264s-103 -264 -255 -264zM287 86c81 0 136 65 136 164s-55 164 -136 164c-82 0 -136 -65 -136 -164s54 -164 136 -164z" />
    <glyph glyph-name="p" unicode="p" 
d="M339 514c133 0 228 -106 228 -264c0 -159 -95 -264 -228 -264c-75 0 -134 34 -171 92v-278h-114v700h114v-77c37 57 96 91 171 91zM307 85c85 0 141 66 141 165s-56 164 -141 164c-84 0 -140 -65 -140 -164s56 -165 140 -165z" />
    <glyph glyph-name="q" unicode="q" 
d="M431 422v78h114v-700h-114v277c-37 -58 -96 -91 -171 -91c-134 0 -228 106 -228 264s95 264 228 264c75 0 134 -34 171 -92zM292 85c84 0 140 66 140 165s-56 164 -140 164c-85 0 -141 -65 -141 -164s56 -165 141 -165z" />
    <glyph glyph-name="r" unicode="r" horiz-adv-x="456" 
d="M305 514c79 0 130 -60 130 -144c0 -36 -9 -72 -24 -102h-119c17 28 25 55 25 78c0 40 -22 67 -57 67c-54 0 -92 -67 -92 -168v-245h-114v500h114v-85c27 62 75 99 137 99z" />
    <glyph glyph-name="s" unicode="s" horiz-adv-x="502" 
d="M255 -14c-141 0 -234 72 -226 193h110c-7 -62 39 -101 117 -101c61 0 102 24 102 60c0 100 -322 28 -322 215c0 100 93 161 214 161c134 0 231 -75 210 -188h-111c14 57 -31 96 -100 96c-58 0 -96 -26 -96 -62c0 -101 323 -24 323 -214c0 -101 -91 -160 -221 -160z" />
    <glyph glyph-name="t" unicode="t" horiz-adv-x="387" 
d="M366 500v-99h-143v-243c0 -41 10 -72 65 -72c26 0 46 7 67 18v-100c-22 -11 -53 -18 -89 -18c-149 0 -157 117 -157 171v244h-95v99h95v133h114v-133h143z" />
    <glyph glyph-name="u" unicode="u" horiz-adv-x="539" 
d="M370 245v255h114v-500h-114v90c-35 -67 -92 -102 -162 -102c-139 0 -161 138 -161 227v285h114v-284c0 -66 15 -129 87 -129c74 0 122 66 122 158z" />
    <glyph glyph-name="v" unicode="v" horiz-adv-x="501" 
d="M251 111l127 389h119l-179 -500h-136l-178 500h121z" />
    <glyph glyph-name="w" unicode="w" horiz-adv-x="798" 
d="M563 122l108 378h119l-156 -500h-133l-102 351l-100 -351h-134l-156 500h121l105 -383l105 383h121z" />
    <glyph glyph-name="x" unicode="x" horiz-adv-x="532" 
d="M336 262l188 -262h-134l-125 180l-126 -180h-131l189 261l-170 239h130l108 -157l107 157h132z" />
    <glyph glyph-name="y" unicode="y" horiz-adv-x="499" 
d="M256 109l121 391h119l-183 -538c-26 -78 -77 -173 -202 -173c-27 0 -56 4 -82 14v99c25 -9 48 -14 70 -14c63 0 90 43 106 84l-201 528h121z" />
    <glyph glyph-name="z" unicode="z" horiz-adv-x="486" 
d="M450 427l-280 -336h290v-91h-421v91l263 314h-245v95h393v-73z" />
    <glyph glyph-name="a.ss02" 
d="M431 422v78h114v-500h-114v77c-37 -57 -96 -91 -171 -91c-134 0 -228 106 -228 264s95 264 228 264c75 0 134 -34 171 -92zM292 86c84 0 140 65 140 164s-56 164 -140 164c-85 0 -141 -65 -141 -164s56 -164 141 -164z" />
    <glyph glyph-name="g.ss03" horiz-adv-x="595" 
d="M426 434v66h114v-459c0 -158 -99 -255 -252 -255c-130 0 -215 70 -234 173h119c10 -45 54 -73 114 -73c87 0 139 57 139 154v48c-37 -51 -94 -80 -166 -80c-134 0 -228 101 -228 252c0 153 95 254 229 254c72 0 128 -29 165 -80zM293 107c80 0 134 62 134 154
s-53 153 -134 153s-134 -61 -134 -154c0 -92 53 -153 134 -153z" />
    <glyph glyph-name="k.ss04" horiz-adv-x="552" 
d="M544 0h-142l-160 212l-68 -70v-142h-120v700h120v-413l202 213h146l-201 -206z" />
    <glyph glyph-name="f.ss05" horiz-adv-x="409" 
d="M394 555h-100c13 39 4 64 -23 64s-40 -23 -40 -61v-58h163v-99h-163v-601h-114v601h-95v99h95v58c0 98 56 156 156 156c106 0 147 -66 121 -159z" />
    <glyph glyph-name="one" unicode="1" horiz-adv-x="434" 
d="M231 700h121v-700h-121v529c-56 -70 -133 -111 -220 -123v110c101 14 190 89 220 184z" />
    <glyph glyph-name="two" unicode="2" horiz-adv-x="618" 
d="M572 459c0 -174 -148 -291 -317 -357h315v-102h-516v100c265 110 393 213 393 357c0 85 -46 151 -138 151c-90 0 -138 -64 -138 -155c0 -55 18 -102 49 -146h-129c-27 41 -45 87 -45 150c0 148 99 257 262 257c165 0 264 -112 264 -255z" />
    <glyph glyph-name="three" unicode="3" horiz-adv-x="619" 
d="M459 372c73 -33 114 -93 114 -171c0 -126 -107 -215 -266 -215c-172 0 -283 103 -258 257h125c-18 -91 40 -151 134 -151c83 0 141 44 141 113c0 70 -60 116 -149 116h-61v96h61c72 0 121 36 121 98c0 58 -45 93 -115 93c-80 0 -130 -48 -113 -123h-120
c-29 133 79 229 235 229c141 0 237 -78 237 -193c0 -66 -31 -117 -86 -149z" />
    <glyph glyph-name="four" unicode="4" horiz-adv-x="628" 
d="M501 266h107v-102h-107v-164h-121v164h-360v103c147 112 269 263 341 433h140v-434zM380 266v259c-53 -93 -124 -183 -211 -259h211z" />
    <glyph glyph-name="five" unicode="5" horiz-adv-x="610" 
d="M318 483c151 0 246 -104 246 -244c0 -150 -110 -253 -267 -253c-164 0 -272 110 -246 253h125c-19 -87 33 -147 123 -147c91 0 140 65 140 144c0 82 -51 146 -147 146c-55 0 -100 -21 -128 -54l-118 50c34 92 49 217 49 322h435v-102h-322c-4 -58 -11 -109 -22 -153
c35 25 79 38 132 38z" />
    <glyph glyph-name="six" unicode="6" horiz-adv-x="642" 
d="M358 454c137 0 239 -94 239 -230c0 -143 -114 -238 -258 -238c-173 0 -293 135 -293 364c0 227 118 364 301 364c150 0 247 -96 219 -229h-120c17 74 -32 123 -106 123c-103 0 -167 -92 -169 -251c35 58 98 97 187 97zM339 92c81 0 133 59 133 129s-51 128 -132 128
c-82 0 -134 -60 -134 -132c0 -69 52 -125 133 -125z" />
    <glyph glyph-name="seven" unicode="7" horiz-adv-x="566" 
d="M24 598v102h517v-96c-126 -160 -229 -356 -247 -604h-129c12 207 90 408 240 598h-381z" />
    <glyph glyph-name="eight" unicode="8" horiz-adv-x="606" 
d="M450 381c67 -36 110 -100 110 -180c0 -126 -109 -215 -257 -215c-152 0 -257 91 -257 216c0 81 44 144 110 179c-51 29 -84 76 -84 141c0 108 94 192 231 192c139 0 231 -85 231 -191c0 -65 -33 -112 -84 -142zM304 608c-65 0 -107 -35 -107 -89c0 -55 42 -90 107 -90
c63 0 105 35 105 90c0 54 -42 89 -105 89zM303 92c81 0 132 47 132 119c0 73 -50 120 -131 120c-83 0 -133 -47 -133 -120c0 -72 50 -119 132 -119z" />
    <glyph glyph-name="nine" unicode="9" horiz-adv-x="642" 
d="M304 714c173 0 293 -135 293 -364c0 -227 -120 -364 -297 -364c-149 0 -251 100 -224 229h121c-18 -74 32 -123 106 -123c104 0 167 93 169 253c-35 -59 -98 -99 -187 -99c-137 0 -239 94 -239 230c0 143 113 238 258 238zM302 351c82 0 134 60 134 132
c0 69 -51 125 -133 125c-81 0 -132 -59 -132 -129c0 -69 50 -128 131 -128z" />
    <glyph glyph-name="four.ss09" horiz-adv-x="628" 
d="M501 248h107v-102h-107v-146h-121v146h-360v103c183 114 270 273 280 451h123c-9 -191 -87 -338 -239 -452h196v126h121v-126z" />
    <glyph glyph-name="period" unicode="." horiz-adv-x="240" 
d="M120 -11c-46 0 -81 35 -81 81s35 80 81 80s81 -34 81 -80s-35 -81 -81 -81z" />
    <glyph glyph-name="comma" unicode="," horiz-adv-x="250" 
d="M122 152c49 0 88 -34 88 -109c0 -94 -63 -172 -146 -190v61c46 14 77 53 85 96c-10 -5 -22 -8 -35 -8c-44 0 -75 31 -75 74c0 44 35 76 83 76z" />
    <glyph glyph-name="uniF8FF" unicode="&#xf8ff;" horiz-adv-x="863" 
d="M82 0v700h700v-700h-700zM575 252c84 0 145 39 145 111c0 141 -226 75 -226 166c0 42 33 60 79 60c58 0 80 -28 86 -68h50c-1 78 -59 112 -136 112c-65 0 -133 -32 -133 -105c0 -142 226 -73 226 -170c0 -47 -46 -61 -87 -61c-55 0 -94 25 -94 75h-53
c1 -85 66 -120 143 -120zM151 259h252v46h-199v119h186v45h-186v111h196v47h-249v-368z" />
    </font>
</defs>
</svg>
