<?xml version="1.0" standalone="no"?>
<!DOCTYPE svg PUBLIC "-//W3C//DTD SVG 1.1//EN" "http://www.w3.org/Graphics/SVG/1.1/DTD/svg11.dtd" >
<svg xmlns="http://www.w3.org/2000/svg" xmlns:xlink="http://www.w3.org/1999/xlink" version="1.1">
<metadata>
Created by FontForge 20201107 at Thu Apr 15 11:48:31 2021
 By Unknown
Copyright \(c\) 2019 by Roger Gaillard. All rights reserved.
</metadata>
<defs>
<font id="ESRebondGrotesqueTRIAL-Regular" horiz-adv-x="584" >
  <font-face 
    font-family="ES Rebond Grotesque TRIAL"
    font-weight="400"
    font-stretch="normal"
    units-per-em="1000"
    panose-1="0 0 5 0 0 0 0 0 0 0"
    ascent="800"
    descent="-200"
    x-height="500"
    cap-height="700"
    bbox="0 -212 979 712"
    underline-thickness="50"
    underline-position="-100"
    stemh="74"
    stemv="81"
    unicode-range="U+0020-F8FF"
  />
<missing-glyph horiz-adv-x="450" 
d="M84 700h285v-900h-285v900zM300 610v30h-149v-30h59v-33h-60v-30h150v30h-60v33h60zM240 461v63h-90v-94h150v31h-60zM180 493h30v-32h-30v32zM300 376v30h-150v-30h60v-33h-60v-30h90v63h60zM300 262v90h-30v-60h-120v-30h150zM300 140v102h-90v-50h30v20h30v-42h-90v72
h-30v-102h150zM300 -16v102h-150v-102h150zM180 57h90v-43h-90v43zM300 -66v30h-150v-30h63l-63 -42v-30h150v30h-92l63 42h29z" />
    <glyph glyph-name=".notdef" horiz-adv-x="450" 
d="M84 700h285v-900h-285v900zM300 610v30h-149v-30h59v-33h-60v-30h150v30h-60v33h60zM240 461v63h-90v-94h150v31h-60zM180 493h30v-32h-30v32zM300 376v30h-150v-30h60v-33h-60v-30h90v63h60zM300 262v90h-30v-60h-120v-30h150zM300 140v102h-90v-50h30v20h30v-42h-90v72
h-30v-102h150zM300 -16v102h-150v-102h150zM180 57h90v-43h-90v43zM300 -66v30h-150v-30h63l-63 -42v-30h150v30h-92l63 42h29z" />
    <glyph glyph-name="space" unicode=" " horiz-adv-x="252" 
 />
    <glyph glyph-name="A" unicode="A" horiz-adv-x="681" 
d="M670 0h-88l-71 185h-339l-71 -185h-90l280 700h99zM341 625l-141 -366h282z" />
    <glyph glyph-name="B" unicode="B" horiz-adv-x="705" 
d="M516 379c89 -25 143 -88 143 -177c0 -118 -96 -202 -240 -202h-328v700h327c115 0 191 -65 191 -172c0 -72 -35 -123 -93 -149zM525 517c0 66 -42 109 -107 109h-246v-219h246c65 0 107 44 107 110zM172 74h246c95 0 157 51 157 131c0 77 -59 128 -151 128h-252v-259z
" />
    <glyph glyph-name="C" unicode="C" horiz-adv-x="751" 
d="M397 -12c-198 0 -346 146 -346 363s149 361 347 361c185 0 309 -129 282 -303h-83c19 135 -62 227 -198 227c-154 0 -264 -118 -264 -285s110 -287 263 -287c125 0 207 82 230 198h87c-24 -157 -142 -274 -318 -274z" />
    <glyph glyph-name="D" unicode="D" horiz-adv-x="716" 
d="M91 700h255c195 0 329 -138 329 -350c0 -208 -129 -350 -327 -350h-257v700zM172 74h173c148 0 246 111 246 277c0 165 -98 275 -246 275h-173v-552z" />
    <glyph glyph-name="E" unicode="E" horiz-adv-x="616" 
d="M172 332v-258h393v-74h-474v700h464v-74h-383v-220h330v-74h-330z" />
    <glyph glyph-name="F" unicode="F" horiz-adv-x="586" 
d="M555 700v-74h-383v-238h330v-74h-330v-314h-81v700h464z" />
    <glyph glyph-name="G" unicode="G" horiz-adv-x="747" 
d="M403 359h314v-74h-131c44 -23 69 -62 69 -114c0 -104 -101 -183 -255 -183c-211 0 -349 146 -349 364c0 211 133 360 344 360c162 0 272 -87 256 -244h-81c14 115 -65 167 -175 167c-160 0 -260 -114 -260 -283c0 -173 104 -288 265 -288c103 0 171 46 171 116
c0 65 -59 105 -168 105v74z" />
    <glyph glyph-name="H" unicode="H" horiz-adv-x="748" 
d="M576 408v292h81v-700h-81v334h-404v-334h-81v700h81v-292h404z" />
    <glyph glyph-name="I" unicode="I" horiz-adv-x="263" 
d="M172 0h-81v700h81v-700z" />
    <glyph glyph-name="J" unicode="J" horiz-adv-x="436" 
d="M184 -12c-136 0 -199 95 -169 220h84c-25 -83 6 -144 88 -144c93 0 107 82 107 136v500h81v-494c0 -66 -18 -218 -191 -218z" />
    <glyph glyph-name="K" unicode="K" horiz-adv-x="690" 
d="M679 0h-100l-288 360l-119 -112v-248h-81v700h81v-356l374 356h105l-306 -289z" />
    <glyph glyph-name="L" unicode="L" horiz-adv-x="596" 
d="M172 700v-626h393v-74h-474v700h81z" />
    <glyph glyph-name="M" unicode="M" horiz-adv-x="869" 
d="M435 99l210 601h133v-700h-81v616l-218 -616h-90l-217 606v-606h-81v700h133z" />
    <glyph glyph-name="N" unicode="N" horiz-adv-x="734" 
d="M562 96v604h81v-700h-115l-356 604v-604h-81v700h115z" />
    <glyph glyph-name="O" unicode="O" horiz-adv-x="797" 
d="M399 -12c-203 0 -348 150 -348 363c0 212 145 361 348 361s346 -149 346 -361c0 -213 -143 -363 -346 -363zM399 64c153 0 263 119 263 286c0 166 -110 286 -263 286c-154 0 -264 -119 -264 -285c0 -167 110 -287 264 -287z" />
    <glyph glyph-name="P" unicode="P" horiz-adv-x="650" 
d="M91 700h311c139 0 216 -69 216 -194s-77 -196 -217 -196h-229v-310h-81v700zM172 384h230c86 0 133 45 133 122c0 78 -47 120 -133 120h-230v-242z" />
    <glyph glyph-name="Q" unicode="Q" horiz-adv-x="797" 
d="M745 352c0 -214 -148 -350 -363 -410c125 -9 229 -27 300 -47v-74c-141 35 -371 60 -547 60v74c107 0 209 20 294 53c-14 -2 -29 -3 -45 -3c-197 0 -333 148 -333 350c0 207 144 357 348 357c203 0 346 -149 346 -360zM135 356c0 -165 116 -275 267 -275
c148 0 260 108 260 272c0 160 -108 283 -263 283c-154 0 -264 -120 -264 -280z" />
    <glyph glyph-name="R" unicode="R" horiz-adv-x="698" 
d="M497 347c111 -55 135 -212 150 -347h-80c-15 152 -38 313 -170 313h-225v-313h-81v700h314c142 0 223 -72 223 -183c0 -86 -49 -146 -131 -170zM172 626v-239h229c92 0 144 42 144 120c0 76 -51 119 -141 119h-232z" />
    <glyph glyph-name="S" unicode="S" horiz-adv-x="659" 
d="M341 -12c-176 0 -290 100 -280 249h81c-7 -107 71 -173 199 -173c108 0 179 48 179 127c0 197 -444 48 -444 315c0 128 103 206 252 206c170 0 275 -102 251 -244h-81c22 103 -55 168 -172 168c-97 0 -166 -45 -166 -123c0 -195 443 -53 443 -318
c0 -134 -112 -207 -262 -207z" />
    <glyph glyph-name="T" unicode="T" horiz-adv-x="625" 
d="M31 700h563v-74h-241v-626h-81v626h-241v74z" />
    <glyph glyph-name="U" unicode="U" horiz-adv-x="730" 
d="M365 -12c-192 0 -283 104 -283 323v389h80v-389c0 -168 65 -247 202 -247c139 0 204 79 204 247v389h80v-389c0 -219 -90 -323 -283 -323z" />
    <glyph glyph-name="V" unicode="V" horiz-adv-x="636" 
d="M320 97l216 603h89l-261 -700h-90l-263 700h90z" />
    <glyph glyph-name="W" unicode="W" horiz-adv-x="990" 
d="M718 99l173 601h88l-211 -700h-100l-172 584l-168 -584h-100l-217 700h90l176 -604l171 604h96z" />
    <glyph glyph-name="X" unicode="X" horiz-adv-x="651" 
d="M374 368l266 -368h-95l-219 303l-222 -303h-93l269 366l-245 334h95l198 -269l197 269h93z" />
    <glyph glyph-name="Y" unicode="Y" horiz-adv-x="616" 
d="M513 700h92l-254 -397v-303h-81v303l-259 397h95l204 -326z" />
    <glyph glyph-name="Z" unicode="Z" horiz-adv-x="602" 
d="M551 617l-418 -543h428v-74h-520v83l418 543h-408v74h500v-83z" />
    <glyph glyph-name="Q.ss07" horiz-adv-x="797" 
d="M731 -136c67 0 122 9 215 31v-74c-93 -24 -149 -33 -220 -33c-229 0 -329 93 -608 94c-14 0 -32 0 -58 -3v76c150 6 264 23 351 50h-15c-195 0 -345 142 -345 351c0 205 144 356 348 356c203 0 346 -149 346 -360c0 -229 -167 -364 -424 -412c158 -23 248 -76 410 -76z
M135 356c0 -165 116 -275 267 -275c148 0 260 108 260 272c0 160 -108 283 -263 283c-154 0 -264 -120 -264 -280z" />
    <glyph glyph-name="a" unicode="a" horiz-adv-x="520" 
d="M261 512c138 0 203 -93 203 -228v-284h-75v91c-36 -64 -99 -103 -181 -103c-101 0 -172 59 -172 148c0 100 88 162 225 162c43 0 88 -6 127 -17v4c0 89 -31 157 -128 157c-75 0 -124 -40 -106 -115h-81c-27 106 62 185 188 185zM216 56c91 0 163 62 172 158
c-36 11 -80 18 -121 18c-96 0 -150 -39 -150 -99c0 -49 37 -77 99 -77z" />
    <glyph glyph-name="b" unicode="b" 
d="M317 512c133 0 226 -105 226 -262c0 -158 -94 -262 -226 -262c-77 0 -138 36 -175 97v-85h-76v700h76v-285c37 61 98 97 175 97zM300 58c99 0 162 77 162 192c0 117 -65 192 -161 192c-98 0 -162 -77 -162 -192s64 -192 161 -192z" />
    <glyph glyph-name="c" unicode="c" horiz-adv-x="549" 
d="M283 -12c-146 0 -243 105 -243 262s96 262 248 262c151 0 230 -106 205 -246h-81c18 109 -31 176 -126 176c-101 0 -165 -77 -165 -192s65 -192 162 -192c76 0 131 48 152 122h83c-20 -97 -96 -192 -235 -192z" />
    <glyph glyph-name="d" unicode="d" 
d="M442 412v288h76v-700h-76v88c-38 -63 -100 -100 -178 -100c-132 0 -224 104 -224 262c0 157 91 262 224 262c79 0 141 -37 178 -100zM283 58c97 0 162 77 162 192s-65 192 -162 192s-162 -77 -162 -192s65 -192 162 -192z" />
    <glyph glyph-name="e" unicode="e" horiz-adv-x="551" 
d="M427 151h83c-29 -101 -112 -163 -226 -163c-149 0 -244 104 -244 262s96 262 248 262c168 0 244 -127 202 -291h-368c10 -103 69 -163 161 -163c69 0 123 35 144 93zM285 444c-93 0 -150 -57 -162 -154h300c10 94 -41 154 -138 154z" />
    <glyph glyph-name="f" unicode="f" horiz-adv-x="361" 
d="M344 566h-70c17 46 6 76 -28 76c-31 0 -49 -25 -49 -68v-74h147v-69h-147v-431h-76v431h-90v69h90v74c0 86 45 138 128 138c90 0 123 -61 95 -146z" />
    <glyph glyph-name="g" unicode="g" horiz-adv-x="543" 
d="M294 111c120 -8 201 -70 201 -162c0 -95 -86 -161 -218 -161c-129 0 -225 65 -245 166h90c9 -58 71 -96 155 -96c82 0 137 36 137 91c0 56 -57 94 -152 94c-48 0 -104 -9 -155 -23v76c76 13 143 34 195 63c-17 -4 -35 -6 -55 -6c-120 0 -200 69 -200 174
c0 110 88 184 218 184c66 0 121 -19 159 -51c17 17 15 72 7 102h76c12 -58 -5 -118 -47 -144c15 -25 23 -54 23 -86c0 -94 -69 -172 -189 -221zM127 326c0 -69 56 -115 139 -115c82 0 137 46 137 115s-54 115 -137 115c-82 0 -139 -46 -139 -115z" />
    <glyph glyph-name="h" unicode="h" horiz-adv-x="538" 
d="M318 512c113 0 164 -85 164 -211v-301h-76v301c0 84 -31 138 -109 138c-91 0 -155 -78 -155 -198v-241h-76v700h76v-298c33 69 97 110 176 110z" />
    <glyph glyph-name="i" unicode="i" horiz-adv-x="218" 
d="M109 585c-33 0 -58 25 -58 58c0 32 25 57 58 57c32 0 57 -25 57 -57c0 -33 -25 -58 -57 -58zM147 0h-76v500h76v-500z" />
    <glyph glyph-name="j" unicode="j" horiz-adv-x="264" 
d="M155 585c-33 0 -58 25 -58 58c0 32 25 57 58 57c32 0 57 -25 57 -57c0 -33 -25 -58 -57 -58zM67 -212c-25 0 -50 6 -67 13v69c16 -7 39 -12 56 -12c61 0 61 67 61 109v533h76v-534c0 -43 0 -178 -126 -178z" />
    <glyph glyph-name="k" unicode="k" horiz-adv-x="546" 
d="M353 185c75 -28 133 -91 157 -185h-88c-22 98 -93 156 -187 156v62c101 0 167 53 167 126c0 62 -46 95 -105 95c-90 0 -155 -78 -155 -198v-241h-76v700h76v-298c33 69 97 110 175 110c99 0 166 -66 166 -161c0 -81 -50 -141 -130 -166z" />
    <glyph glyph-name="l" unicode="l" horiz-adv-x="218" 
d="M147 0h-76v700h76v-700z" />
    <glyph glyph-name="m" unicode="m" horiz-adv-x="832" 
d="M620 512c103 0 156 -73 156 -183v-329h-76v309c0 78 -33 130 -100 130c-83 0 -141 -78 -141 -198v-241h-76v309c0 78 -33 130 -100 130c-83 0 -141 -78 -141 -198v-241h-76v500h76v-91c26 55 79 103 161 103c76 0 127 -43 147 -111c31 69 94 111 170 111z" />
    <glyph glyph-name="n" unicode="n" horiz-adv-x="538" 
d="M323 512c159 0 159 -156 159 -239v-273h-76v269c0 70 0 170 -106 170c-94 0 -158 -79 -158 -198v-241h-76v500h76v-98c37 69 102 110 181 110z" />
    <glyph glyph-name="o" unicode="o" horiz-adv-x="565" 
d="M283 -12c-146 0 -243 105 -243 262s97 262 243 262c145 0 242 -105 242 -262s-97 -262 -242 -262zM283 58c96 0 161 77 161 192s-65 192 -161 192c-97 0 -162 -77 -162 -192s65 -192 162 -192z" />
    <glyph glyph-name="p" unicode="p" 
d="M317 512c133 0 226 -105 226 -262c0 -158 -94 -262 -226 -262c-77 0 -138 36 -175 97v-285h-76v700h76v-85c37 61 98 97 175 97zM300 58c97 0 162 77 162 192s-65 192 -162 192s-161 -77 -161 -192s64 -192 161 -192z" />
    <glyph glyph-name="q" unicode="q" 
d="M442 414v86h76v-700h-76v286c-37 -62 -97 -98 -175 -98c-133 0 -227 104 -227 262c0 157 93 262 227 262c78 0 138 -36 175 -98zM283 58c97 0 162 77 162 192s-65 192 -162 192s-162 -77 -162 -192s65 -192 162 -192z" />
    <glyph glyph-name="r" unicode="r" horiz-adv-x="422" 
d="M276 512c72 0 117 -56 117 -126c0 -30 -8 -57 -19 -80h-81c14 21 19 43 19 63c0 43 -25 70 -63 70c-64 0 -107 -78 -107 -196v-243h-76v500h76v-87c29 63 75 99 134 99z" />
    <glyph glyph-name="s" unicode="s" horiz-adv-x="490" 
d="M252 -12c-136 0 -228 73 -214 201h73c-12 -83 44 -136 143 -136c75 0 124 31 124 79c0 126 -333 44 -333 225c0 95 91 155 202 155c131 0 219 -82 195 -185h-73c17 70 -41 120 -125 120c-68 0 -121 -32 -121 -82c0 -122 333 -38 333 -225c0 -95 -83 -152 -204 -152z" />
    <glyph glyph-name="t" unicode="t" horiz-adv-x="356" 
d="M329 500v-69h-141v-288c0 -47 8 -85 70 -85c23 0 43 5 61 12v-69c-20 -7 -46 -13 -74 -13c-132 0 -133 114 -133 154v289h-90v69h90v129h76v-129h141z" />
    <glyph glyph-name="u" unicode="u" horiz-adv-x="528" 
d="M387 241v259h76v-500h-76v103c-37 -78 -97 -115 -170 -115c-136 0 -161 130 -161 220v292h76v-291c0 -70 17 -148 106 -148c87 0 149 74 149 180z" />
    <glyph glyph-name="v" unicode="v" horiz-adv-x="469" 
d="M236 90l150 410h78l-186 -500h-87l-186 500h81z" />
    <glyph glyph-name="w" unicode="w" horiz-adv-x="769" 
d="M553 100l128 400h78l-165 -500h-81l-128 384l-126 -384h-82l-167 500h81l127 -401l128 401h80z" />
    <glyph glyph-name="x" unicode="x" horiz-adv-x="504" 
d="M299 262l193 -262h-94l-147 199l-147 -199h-92l191 261l-176 239h95l130 -178l130 178h93z" />
    <glyph glyph-name="y" unicode="y" horiz-adv-x="468" 
d="M241 63l143 437h78l-184 -542c-35 -104 -91 -166 -182 -166c-28 0 -57 6 -79 15v70c24 -10 47 -15 71 -15c67 0 96 46 113 96l5 16l-200 526h81z" />
    <glyph glyph-name="z" unicode="z" horiz-adv-x="471" 
d="M431 431l-296 -362h306v-69h-400v69l296 362h-276v69h370v-69z" />
    <glyph glyph-name="a.ss02" 
d="M442 414v86h76v-500h-76v86c-37 -62 -97 -98 -175 -98c-133 0 -227 104 -227 262c0 157 93 262 227 262c78 0 138 -36 175 -98zM283 58c97 0 162 77 162 192s-65 192 -162 192s-162 -77 -162 -192s65 -192 162 -192z" />
    <glyph glyph-name="g.ss03" 
d="M442 417v83h76v-459c0 -160 -94 -253 -236 -253c-117 0 -201 62 -222 164h81c11 -59 65 -94 139 -94c102 0 162 67 162 182v62c-37 -59 -97 -94 -175 -94c-133 0 -227 100 -227 252c0 151 94 252 227 252c78 0 138 -35 175 -95zM282 77c97 0 161 73 161 182
s-64 183 -161 183s-161 -73 -161 -182s64 -183 161 -183z" />
    <glyph glyph-name="k.ss04" horiz-adv-x="518" 
d="M506 0h-95l-190 237l-79 -81v-156h-76v700h76v-450l233 250h101l-203 -209z" />
    <glyph glyph-name="f.ss05" horiz-adv-x="361" 
d="M344 566h-70c17 46 6 76 -28 76c-31 0 -49 -25 -49 -68v-74h147v-69h-147v-631h-76v631h-90v69h90v74c0 86 45 138 128 138c90 0 123 -61 95 -146z" />
    <glyph glyph-name="one" unicode="1" horiz-adv-x="407" 
d="M240 700h76v-700h-81v552c-54 -73 -131 -114 -220 -139v81c96 25 191 94 225 206z" />
    <glyph glyph-name="two" unicode="2" horiz-adv-x="612" 
d="M561 458c0 -175 -156 -314 -345 -384h343v-74h-503v74c275 97 421 232 421 384c0 94 -58 178 -170 178c-108 0 -171 -77 -171 -188c0 -69 24 -122 61 -172h-89c-33 46 -56 98 -56 172c0 147 93 264 254 264s255 -119 255 -254z" />
    <glyph glyph-name="three" unicode="3" horiz-adv-x="612" 
d="M440 374c76 -33 121 -95 121 -176c0 -124 -104 -210 -260 -210c-167 0 -271 100 -247 253h84c-20 -114 51 -177 164 -177c104 0 175 53 175 135s-70 136 -176 136h-73v74h73c88 0 147 40 147 112c0 71 -59 115 -149 115c-101 0 -166 -55 -145 -147h-76
c-33 129 71 223 224 223c137 0 230 -76 230 -189c0 -69 -34 -120 -92 -149z" />
    <glyph glyph-name="four" unicode="4" horiz-adv-x="592" 
d="M460 236h112v-74h-112v-162h-80v162h-360v74c153 111 287 281 364 464h76v-464zM380 236v302c-61 -109 -147 -218 -252 -302h252z" />
    <glyph glyph-name="five" unicode="5" horiz-adv-x="594" 
d="M299 485c149 0 244 -102 244 -246c0 -150 -107 -251 -254 -251c-158 0 -259 113 -234 253h84c-21 -103 41 -177 150 -177c112 0 170 84 170 175c0 93 -59 170 -173 170c-66 0 -119 -24 -155 -64l-78 47c33 85 43 204 43 308h413v-74h-336c-3 -80 -11 -140 -24 -187
c38 29 89 46 150 46z" />
    <glyph glyph-name="six" unicode="6" horiz-adv-x="628" 
d="M338 456c131 0 239 -94 239 -233c0 -136 -103 -235 -247 -235c-168 0 -279 138 -279 360c0 223 109 364 283 364c143 0 239 -100 209 -232h-77c21 95 -41 156 -132 156c-123 0 -199 -107 -199 -288v-22c34 78 106 130 203 130zM331 64c104 0 162 78 162 159
c0 78 -56 157 -160 157c-106 0 -164 -80 -164 -164c0 -76 57 -152 162 -152z" />
    <glyph glyph-name="seven" unicode="7" horiz-adv-x="557" 
d="M30 626v74h501v-74c-119 -164 -246 -356 -269 -626h-90c14 203 101 418 271 626h-413z" />
    <glyph glyph-name="eight" unicode="8" horiz-adv-x="593" 
d="M428 382c71 -36 114 -103 114 -182c0 -123 -104 -212 -245 -212c-146 0 -246 92 -246 213c0 81 44 146 114 181c-53 30 -86 79 -86 144c0 105 91 186 218 186c128 0 217 -83 217 -185c0 -65 -33 -115 -86 -145zM297 636c-81 0 -134 -44 -134 -110s53 -109 135 -109
c79 0 132 43 132 109c0 65 -53 110 -133 110zM297 64c100 0 161 56 161 140s-61 139 -161 139c-101 0 -162 -55 -162 -139s61 -140 162 -140z" />
    <glyph glyph-name="nine" unicode="9" horiz-adv-x="628" 
d="M298 712c168 0 279 -138 279 -360c0 -223 -109 -364 -283 -364c-143 0 -238 100 -208 232h76c-21 -95 42 -156 132 -156c123 0 199 107 199 288v20c-34 -77 -106 -128 -202 -128c-132 0 -240 94 -240 233c0 136 103 235 247 235zM295 320c106 0 164 80 164 164
c0 76 -56 152 -162 152c-104 0 -162 -78 -162 -159c0 -78 56 -157 160 -157z" />
    <glyph glyph-name="four.ss09" horiz-adv-x="592" 
d="M460 236h112v-74h-112v-162h-80v162h-360v74c195 109 297 280 297 464h85c0 -200 -97 -354 -268 -464h246v137h80v-137z" />
    <glyph glyph-name="period" unicode="." horiz-adv-x="236" 
d="M118 -10c-38 0 -67 29 -67 67s29 67 67 67s67 -29 67 -67s-29 -67 -67 -67z" />
    <glyph glyph-name="comma" unicode="," horiz-adv-x="244" 
d="M118 130c45 0 75 -35 75 -100c0 -82 -49 -150 -119 -169v45c45 17 74 64 74 109v4c-10 -7 -23 -11 -37 -11c-36 0 -60 24 -60 59c0 37 28 63 67 63z" />
    <glyph glyph-name="uniF8FF" unicode="&#xf8ff;" horiz-adv-x="882" 
d="M91 0v700h700v-700h-700zM584 252c84 0 145 39 145 111c0 141 -226 75 -226 166c0 42 33 60 79 60c58 0 80 -28 86 -68h50c-1 78 -59 112 -136 112c-65 0 -133 -32 -133 -105c0 -142 226 -73 226 -170c0 -47 -46 -61 -87 -61c-55 0 -94 25 -94 75h-53
c1 -85 66 -120 143 -120zM160 259h252v46h-199v119h186v45h-186v111h196v47h-249v-368z" />
    </font>
</defs>
</svg>
