<?xml version="1.0" standalone="no"?>
<!DOCTYPE svg PUBLIC "-//W3C//DTD SVG 1.1//EN" "http://www.w3.org/Graphics/SVG/1.1/DTD/svg11.dtd" >
<svg xmlns="http://www.w3.org/2000/svg" xmlns:xlink="http://www.w3.org/1999/xlink" version="1.1">
<metadata>
Created by FontForge 20201107 at Thu Apr 15 11:48:30 2021
 By Unknown
Copyright \(c\) 2019 by Roger Gaillard. All rights reserved.
</metadata>
<defs>
<font id="ESRebondGrotesqueTRIAL-Medium" horiz-adv-x="590" >
  <font-face 
    font-family="ES Rebond Grotesque TRIAL Medium"
    font-weight="500"
    font-stretch="normal"
    units-per-em="1000"
    panose-1="0 0 6 0 0 0 0 0 0 0"
    ascent="800"
    descent="-200"
    x-height="500"
    cap-height="700"
    bbox="0 -213 991 713"
    underline-thickness="50"
    underline-position="-100"
    stemh="87"
    stemv="99"
    unicode-range="U+0020-F8FF"
  />
<missing-glyph horiz-adv-x="450" 
d="M84 700h285v-900h-285v900zM300 610v30h-149v-30h59v-33h-60v-30h150v30h-60v33h60zM240 461v63h-90v-94h150v31h-60zM180 493h30v-32h-30v32zM300 376v30h-150v-30h60v-33h-60v-30h90v63h60zM300 262v90h-30v-60h-120v-30h150zM300 140v102h-90v-50h30v20h30v-42h-90v72
h-30v-102h150zM300 -16v102h-150v-102h150zM180 57h90v-43h-90v43zM300 -66v30h-150v-30h63l-63 -42v-30h150v30h-92l63 42h29z" />
    <glyph glyph-name=".notdef" horiz-adv-x="450" 
d="M84 700h285v-900h-285v900zM300 610v30h-149v-30h59v-33h-60v-30h150v30h-60v33h60zM240 461v63h-90v-94h150v31h-60zM180 493h30v-32h-30v32zM300 376v30h-150v-30h60v-33h-60v-30h90v63h60zM300 262v90h-30v-60h-120v-30h150zM300 140v102h-90v-50h30v20h30v-42h-90v72
h-30v-102h150zM300 -16v102h-150v-102h150zM180 57h90v-43h-90v43zM300 -66v30h-150v-30h63l-63 -42v-30h150v30h-92l63 42h29z" />
    <glyph glyph-name="space" unicode=" " horiz-adv-x="247" 
 />
    <glyph glyph-name="A" unicode="A" horiz-adv-x="696" 
d="M686 0h-105l-66 173h-331l-66 -173h-109l279 700h120zM349 607l-132 -347h265z" />
    <glyph glyph-name="B" unicode="B" horiz-adv-x="705" 
d="M520 379c88 -26 141 -88 141 -176c0 -121 -96 -203 -247 -203h-327v700h326c122 0 200 -65 200 -173c0 -72 -34 -123 -93 -148zM511 513c0 61 -38 100 -98 100h-227v-202h226c61 0 99 41 99 102zM186 87h227c89 0 146 47 146 121c0 71 -54 117 -141 117h-232v-238z" />
    <glyph glyph-name="C" unicode="C" horiz-adv-x="754" 
d="M398 -13c-203 0 -350 150 -350 364c0 216 149 362 350 362c189 0 317 -130 289 -306h-102c19 129 -57 216 -186 216c-146 0 -248 -115 -248 -272c0 -159 103 -274 248 -274c117 0 196 76 217 185h105c-23 -161 -146 -275 -323 -275z" />
    <glyph glyph-name="D" unicode="D" horiz-adv-x="721" 
d="M87 700h263c198 0 333 -138 333 -350c0 -208 -131 -350 -331 -350h-265v700zM186 87h164c137 0 231 105 231 264c0 157 -92 262 -231 262h-164v-526z" />
    <glyph glyph-name="E" unicode="E" horiz-adv-x="617" 
d="M186 325v-238h383v-87h-482v700h472v-87h-373v-200h320v-88h-320z" />
    <glyph glyph-name="F" unicode="F" horiz-adv-x="587" 
d="M559 700v-87h-373v-222h320v-87h-320v-304h-99v700h472z" />
    <glyph glyph-name="G" unicode="G" horiz-adv-x="752" 
d="M399 363h324v-87h-127c40 -23 64 -59 64 -108c0 -102 -104 -181 -260 -181c-211 0 -352 146 -352 365c0 213 135 361 347 361c165 0 279 -88 263 -250h-99c13 109 -61 160 -164 160c-150 0 -244 -109 -244 -271c0 -165 97 -275 249 -275c93 0 157 41 157 104
c0 59 -55 95 -158 95v87z" />
    <glyph glyph-name="H" unicode="H" horiz-adv-x="751" 
d="M566 413v287h99v-700h-99v326h-380v-326h-99v700h99v-287h380z" />
    <glyph glyph-name="I" unicode="I" horiz-adv-x="272" 
d="M186 0h-99v700h99v-700z" />
    <glyph glyph-name="J" unicode="J" horiz-adv-x="450" 
d="M192 -13c-142 0 -209 95 -175 228h99c-24 -84 4 -138 79 -138c85 0 98 73 98 125v498h99v-488c0 -74 -20 -225 -200 -225z" />
    <glyph glyph-name="K" unicode="K" horiz-adv-x="709" 
d="M700 0h-122l-276 352l-116 -110v-242h-99v700h99v-344l357 344h125l-300 -285z" />
    <glyph glyph-name="L" unicode="L" horiz-adv-x="597" 
d="M186 700v-613h383v-87h-482v700h99z" />
    <glyph glyph-name="M" unicode="M" horiz-adv-x="889" 
d="M445 119l193 581h164v-700h-99v604l-205 -604h-107l-205 594v-594h-99v700h164z" />
    <glyph glyph-name="N" unicode="N" horiz-adv-x="740" 
d="M554 120v580h99v-700h-139l-328 586v-586h-99v700h141z" />
    <glyph glyph-name="O" unicode="O" horiz-adv-x="797" 
d="M399 -13c-205 0 -351 151 -351 364c0 212 146 362 351 362s350 -150 350 -362c0 -213 -145 -364 -350 -364zM399 77c144 0 247 113 247 273s-103 273 -247 273c-145 0 -248 -113 -248 -272c0 -160 103 -274 248 -274z" />
    <glyph glyph-name="P" unicode="P" horiz-adv-x="654" 
d="M87 700h315c143 0 224 -71 224 -200c0 -128 -81 -203 -224 -203h-216v-297h-99v700zM186 385h216c78 0 122 42 122 115s-44 113 -122 113h-216v-228z" />
    <glyph glyph-name="Q" unicode="Q" horiz-adv-x="797" 
d="M749 351c0 -216 -152 -349 -362 -408c124 -7 224 -24 297 -43v-88c-145 35 -369 59 -549 59v88c104 1 204 18 287 48c-13 -1 -27 -2 -41 -2c-194 0 -333 144 -333 349c0 208 144 359 351 359c205 0 350 -150 350 -362zM151 355c0 -159 108 -265 250 -265s245 105 245 262
c0 155 -101 271 -247 271c-145 0 -248 -113 -248 -268z" />
    <glyph glyph-name="R" unicode="R" horiz-adv-x="704" 
d="M508 336c105 -54 134 -196 148 -336h-99c-14 159 -40 301 -164 301h-207v-301h-99v700h319c147 0 231 -74 231 -190c0 -88 -49 -148 -129 -174zM186 613v-227h219c83 0 130 40 130 113s-47 114 -130 114h-219z" />
    <glyph glyph-name="S" unicode="S" horiz-adv-x="667" 
d="M343 -13c-178 0 -293 100 -282 249h99c-7 -99 64 -160 184 -160c101 0 166 44 166 116c0 185 -435 41 -435 311c0 131 103 210 257 210c173 0 279 -102 256 -245h-99c20 96 -49 156 -159 156c-91 0 -154 -41 -154 -112c0 -184 436 -46 436 -313
c0 -136 -113 -212 -269 -212z" />
    <glyph glyph-name="T" unicode="T" horiz-adv-x="634" 
d="M28 700h578v-87h-239v-613h-99v613h-240v87z" />
    <glyph glyph-name="U" unicode="U" horiz-adv-x="732" 
d="M367 -13c-195 0 -291 107 -291 323v390h99v-387c0 -159 62 -235 191 -235c130 0 192 76 192 235v387h99v-390c0 -216 -96 -323 -290 -323z" />
    <glyph glyph-name="V" unicode="V" horiz-adv-x="650" 
d="M327 116l207 584h106l-259 -700h-109l-263 700h109z" />
    <glyph glyph-name="W" unicode="W" horiz-adv-x="1000" 
d="M719 116l165 584h107l-210 -700h-120l-161 573l-156 -573h-120l-215 700h108l168 -586l157 586h118z" />
    <glyph glyph-name="X" unicode="X" horiz-adv-x="669" 
d="M396 366l264 -366h-115l-211 296l-214 -296h-111l267 365l-243 335h115l189 -262l189 262h112z" />
    <glyph glyph-name="Y" unicode="Y" horiz-adv-x="638" 
d="M517 700h111l-257 -401v-299h-99v298l-263 402h115l196 -316z" />
    <glyph glyph-name="Z" unicode="Z" horiz-adv-x="607" 
d="M558 607l-407 -520h417v-87h-530v93l407 520h-395v87h508v-93z" />
    <glyph glyph-name="Q.ss07" horiz-adv-x="797" 
d="M729 -124c66 0 121 8 211 29v-87c-89 -23 -147 -31 -216 -31c-221 0 -328 85 -595 86c-18 0 -40 0 -70 -3v89c145 5 258 20 345 46h-12c-191 0 -344 139 -344 351c0 205 145 357 351 357c204 0 350 -149 350 -362c0 -228 -164 -360 -414 -407c149 -21 240 -68 394 -68z
M151 355c0 -159 108 -265 250 -265s245 105 245 262c0 155 -101 271 -247 271c-145 0 -248 -113 -248 -268z" />
    <glyph glyph-name="a" unicode="a" horiz-adv-x="524" 
d="M263 513c140 0 209 -91 209 -228v-285h-88v88c-36 -64 -98 -101 -179 -101c-103 0 -172 60 -172 149c0 100 88 162 227 162c40 0 82 -5 119 -15v2c0 84 -29 145 -117 145c-68 0 -111 -36 -96 -102h-97c-27 108 66 185 194 185zM219 66c82 0 149 54 163 140
c-34 11 -76 17 -115 17c-89 0 -138 -35 -138 -88c0 -44 34 -69 90 -69z" />
    <glyph glyph-name="b" unicode="b" 
d="M326 513c133 0 227 -106 227 -263c0 -158 -95 -263 -227 -263c-76 0 -135 34 -172 93v-80h-93v700h93v-280c37 59 96 93 172 93zM303 70c92 0 152 73 152 180c0 109 -61 180 -151 180c-92 0 -153 -73 -153 -180s61 -180 152 -180z" />
    <glyph glyph-name="c" unicode="c" horiz-adv-x="553" 
d="M284 -13c-148 0 -247 106 -247 263c0 158 98 263 252 263s240 -106 210 -251h-96c18 104 -27 168 -116 168c-93 0 -152 -72 -152 -180s60 -180 150 -180c69 0 118 43 138 109h101c-21 -99 -100 -192 -240 -192z" />
    <glyph glyph-name="d" unicode="d" horiz-adv-x="588" 
d="M434 421v279h93v-700h-93v79c-38 -58 -98 -92 -173 -92c-132 0 -224 105 -224 263c0 157 91 263 224 263c75 0 135 -34 173 -92zM287 70c91 0 151 73 151 180s-60 180 -151 180s-152 -73 -152 -180s61 -180 152 -180z" />
    <glyph glyph-name="e" unicode="e" horiz-adv-x="555" 
d="M417 154h101c-29 -103 -114 -167 -233 -167c-152 0 -248 105 -248 263s97 263 252 263c171 0 253 -128 209 -293h-362c10 -94 63 -150 149 -150c64 0 113 32 132 84zM286 432c-83 0 -135 -50 -148 -136h275c8 84 -38 136 -127 136z" />
    <glyph glyph-name="f" unicode="f" horiz-adv-x="379" 
d="M363 561h-84c16 43 6 70 -24 70c-28 0 -44 -23 -44 -62v-69h152v-83h-152v-417h-93v417h-90v83h90v69c0 90 49 144 140 144c96 0 132 -63 105 -152z" />
    <glyph glyph-name="g" unicode="g" horiz-adv-x="544" 
d="M308 112c116 -10 191 -72 191 -161c0 -97 -90 -164 -223 -164c-130 0 -228 65 -249 168h108c9 -52 65 -85 140 -85s126 32 126 83s-52 86 -143 86c-46 0 -101 -9 -151 -23v82c76 12 141 34 191 62c-17 -4 -35 -6 -55 -6c-120 0 -201 68 -201 173c0 110 90 185 222 185
c68 0 123 -19 162 -52c13 24 11 72 3 102h85c12 -58 -7 -119 -49 -149c14 -24 21 -52 21 -82c0 -90 -65 -168 -178 -219zM140 326c0 -61 50 -103 125 -103c74 0 123 42 123 103s-48 103 -123 103c-74 0 -125 -42 -125 -103z" />
    <glyph glyph-name="h" unicode="h" horiz-adv-x="541" 
d="M325 513c112 0 164 -84 164 -212v-301h-93v301c0 76 -29 127 -100 127c-83 0 -142 -74 -142 -185v-243h-93v700h93v-295c31 67 93 108 171 108z" />
    <glyph glyph-name="i" unicode="i" horiz-adv-x="225" 
d="M113 579c-37 0 -65 29 -65 65c0 37 28 65 65 65s65 -28 65 -65c0 -36 -28 -65 -65 -65zM159 0h-93v500h93v-500z" />
    <glyph glyph-name="j" unicode="j" horiz-adv-x="275" 
d="M163 579c-37 0 -65 29 -65 65c0 37 28 65 65 65s65 -28 65 -65c0 -36 -28 -65 -65 -65zM71 -213c-27 0 -53 6 -71 14v83c17 -8 40 -14 58 -14c58 0 58 63 58 106v524h93v-525c0 -46 0 -188 -138 -188z" />
    <glyph glyph-name="k" unicode="k" horiz-adv-x="555" 
d="M372 186c71 -30 127 -93 149 -186h-108c-19 95 -83 151 -166 154v70c90 0 148 49 148 116c0 57 -43 87 -98 87c-83 0 -143 -73 -143 -184v-243h-93v700h93v-295c31 67 94 108 172 108c100 0 167 -66 167 -162c0 -79 -46 -138 -121 -165z" />
    <glyph glyph-name="l" unicode="l" horiz-adv-x="225" 
d="M159 0h-93v700h93v-700z" />
    <glyph glyph-name="m" unicode="m" horiz-adv-x="833" 
d="M626 513c102 0 155 -73 155 -187v-326h-93v309c0 70 -30 118 -90 118c-76 0 -130 -73 -130 -184v-243h-93v309c0 71 -30 119 -91 119c-76 0 -130 -73 -130 -186v-242h-93v500h93v-88c26 55 80 101 159 101c74 0 126 -42 146 -108c30 67 92 108 167 108z" />
    <glyph glyph-name="n" unicode="n" horiz-adv-x="541" 
d="M329 513c160 0 160 -157 160 -239v-274h-93v271c0 66 0 157 -97 157c-86 0 -145 -74 -145 -185v-243h-93v500h93v-95c36 68 98 108 175 108z" />
    <glyph glyph-name="o" unicode="o" horiz-adv-x="568" 
d="M284 -13c-148 0 -247 106 -247 263s99 263 247 263s247 -106 247 -263s-99 -263 -247 -263zM284 70c90 0 149 73 149 180c0 108 -59 180 -149 180c-89 0 -149 -72 -149 -180c0 -107 60 -180 149 -180z" />
    <glyph glyph-name="p" unicode="p" 
d="M326 513c133 0 227 -106 227 -263c0 -158 -95 -263 -227 -263c-76 0 -135 35 -172 94v-281h-93v700h93v-80c37 59 96 93 172 93zM303 70c91 0 152 73 152 180s-61 180 -152 180s-152 -73 -152 -180s61 -180 152 -180z" />
    <glyph glyph-name="q" unicode="q" 
d="M436 420v80h93v-700h-93v280c-37 -59 -97 -93 -172 -93c-133 0 -227 105 -227 263c0 157 94 263 227 263c76 0 135 -34 172 -93zM287 70c91 0 151 73 151 180s-60 180 -151 180s-152 -73 -152 -180s61 -180 152 -180z" />
    <glyph glyph-name="r" unicode="r" horiz-adv-x="436" 
d="M288 513c75 0 122 -58 122 -133c0 -32 -9 -63 -21 -89h-98c15 24 21 47 21 68c0 41 -23 68 -59 68c-59 0 -99 -73 -99 -183v-244h-93v500h93v-85c28 62 74 98 134 98z" />
    <glyph glyph-name="s" unicode="s" horiz-adv-x="494" 
d="M253 -13c-138 0 -231 72 -220 197h90c-10 -72 41 -120 131 -120c69 0 114 27 114 70c0 115 -328 37 -328 221c0 97 93 158 207 158c133 0 226 -80 202 -186h-90c16 64 -37 109 -114 109c-62 0 -109 -29 -109 -73c0 -112 327 -32 327 -221c0 -97 -85 -155 -210 -155z" />
    <glyph glyph-name="t" unicode="t" horiz-adv-x="368" 
d="M344 500v-83h-141v-266c0 -46 8 -81 68 -81c24 0 44 6 63 15v-84c-21 -8 -49 -14 -80 -14c-141 0 -144 117 -144 163v267h-92v83h92v131h93v-131h141z" />
    <glyph glyph-name="u" unicode="u" horiz-adv-x="532" 
d="M378 242v258h93v-500h-93v95c-36 -71 -94 -107 -165 -107c-138 0 -161 134 -161 223v289h93v-288c0 -68 16 -139 98 -139c81 0 135 71 135 169z" />
    <glyph glyph-name="v" unicode="v" horiz-adv-x="482" 
d="M242 101l139 399h96l-182 -500h-109l-181 500h98z" />
    <glyph glyph-name="w" unicode="w" horiz-adv-x="782" 
d="M557 113l120 387h96l-162 -500h-103l-117 369l-115 -369h-104l-162 500h98l117 -391l118 391h99z" />
    <glyph glyph-name="x" unicode="x" horiz-adv-x="517" 
d="M316 262l191 -262h-112l-138 190l-138 -190h-110l192 261l-175 239h111l121 -167l120 167h111z" />
    <glyph glyph-name="y" unicode="y" horiz-adv-x="480" 
d="M246 84l134 416h96l-183 -539c-32 -94 -85 -170 -191 -170c-27 0 -56 5 -80 15v82c25 -9 48 -14 71 -14c70 0 95 51 111 98v1l-199 527h98z" />
    <glyph glyph-name="z" unicode="z" horiz-adv-x="476" 
d="M438 427l-287 -347h297v-80h-408v80l280 339h-261v81h379v-73z" />
    <glyph glyph-name="a.ss02" 
d="M436 419v81h93v-500h-93v80c-37 -59 -96 -93 -172 -93c-133 0 -227 105 -227 263c0 157 94 263 227 263c75 0 135 -35 172 -94zM287 70c91 0 151 73 151 180s-60 180 -151 180s-152 -73 -152 -180s61 -180 152 -180z" />
    <glyph glyph-name="g.ss03" horiz-adv-x="588" 
d="M434 426v74h93v-459c0 -159 -96 -254 -243 -254c-122 0 -206 65 -226 168h98c10 -53 60 -85 127 -85c94 0 151 63 151 170v54c-37 -54 -96 -86 -170 -86c-134 0 -227 101 -227 252c0 152 94 253 227 253c74 0 133 -32 170 -87zM287 91c89 0 148 68 148 169
s-59 170 -148 170c-90 0 -149 -69 -149 -170s59 -169 149 -169z" />
    <glyph glyph-name="k.ss04" horiz-adv-x="532" 
d="M522 0h-116l-178 225l-72 -74v-151h-95v700h95v-432l217 232h122l-202 -209z" />
    <glyph glyph-name="f.ss05" horiz-adv-x="379" 
d="M363 561h-84c16 43 6 70 -24 70c-28 0 -44 -23 -44 -62v-69h152v-83h-152v-617h-93v617h-90v83h90v69c0 90 49 144 140 144c96 0 132 -63 105 -152z" />
    <glyph glyph-name="one" unicode="1" horiz-adv-x="418" 
d="M235 700h96v-700h-99v540c-56 -70 -132 -109 -219 -129v95c97 20 190 89 222 194z" />
    <glyph glyph-name="two" unicode="2" horiz-adv-x="614" 
d="M566 457c0 -173 -151 -303 -328 -370h325v-87h-508v86c271 101 409 223 409 370c0 90 -52 167 -157 167c-100 0 -156 -72 -156 -174c0 -63 21 -113 56 -161h-107c-31 44 -52 94 -52 162c0 148 96 263 258 263c165 0 260 -118 260 -256z" />
    <glyph glyph-name="three" unicode="3" horiz-adv-x="613" 
d="M448 373c74 -33 117 -94 117 -173c0 -125 -104 -213 -262 -213c-169 0 -276 101 -251 254h102c-20 -103 46 -164 150 -164c94 0 159 49 159 125s-65 126 -163 126h-68v85h68c80 0 135 38 135 105c0 65 -53 105 -134 105c-91 0 -150 -51 -131 -136h-95
c-32 131 75 226 229 226c138 0 233 -77 233 -191c0 -68 -33 -119 -89 -149z" />
    <glyph glyph-name="four" unicode="4" horiz-adv-x="606" 
d="M478 250h108v-87h-108v-163h-99v163h-359v87c150 110 279 272 355 450h103v-450zM379 250v279c-57 -100 -135 -200 -231 -279h231z" />
    <glyph glyph-name="five" unicode="5" horiz-adv-x="599" 
d="M306 484c149 0 244 -102 244 -245c0 -151 -109 -252 -258 -252c-161 0 -265 111 -239 253h102c-20 -95 37 -163 137 -163c104 0 156 76 156 161c0 87 -55 158 -161 158c-61 0 -109 -23 -142 -59l-96 49c33 89 45 210 45 314h423v-87h-329c-3 -70 -11 -125 -23 -171
c36 27 84 42 141 42z" />
    <glyph glyph-name="six" unicode="6" horiz-adv-x="634" 
d="M345 456c134 0 240 -94 240 -233c0 -138 -107 -236 -252 -236c-170 0 -285 137 -285 362c0 224 114 364 291 364c146 0 242 -99 213 -232h-96c19 87 -37 142 -120 142c-114 0 -185 -102 -185 -275v-6c35 68 102 114 194 114zM334 77c95 0 149 71 149 145
s-53 144 -147 144c-96 0 -151 -72 -151 -150c0 -72 54 -139 149 -139z" />
    <glyph glyph-name="seven" unicode="7" horiz-adv-x="562" 
d="M28 613v87h509v-85c-122 -164 -241 -358 -260 -615h-108c12 199 93 407 259 613h-400z" />
    <glyph glyph-name="eight" unicode="8" horiz-adv-x="597" 
d="M437 382c69 -37 112 -102 112 -182c0 -124 -107 -213 -250 -213c-148 0 -251 92 -251 215c0 81 44 144 111 180c-50 29 -83 78 -83 142c0 107 92 189 223 189c132 0 222 -85 222 -188c0 -64 -32 -113 -84 -143zM300 623c-74 0 -122 -40 -122 -100c0 -61 48 -100 122 -100
c71 0 119 39 119 100c0 60 -48 100 -119 100zM299 77c91 0 148 51 148 130s-57 130 -147 130c-93 0 -149 -51 -149 -130s56 -130 148 -130z" />
    <glyph glyph-name="nine" unicode="9" horiz-adv-x="634" 
d="M300 713c170 0 285 -137 285 -362c0 -224 -113 -364 -289 -364c-145 0 -243 100 -214 232h95c-19 -87 38 -142 120 -142c115 0 186 102 186 275v7c-35 -69 -103 -115 -195 -115c-133 0 -240 94 -240 233c0 138 108 236 252 236zM298 334c96 0 150 72 150 150
c0 72 -53 139 -149 139c-94 0 -148 -71 -148 -145s52 -144 147 -144z" />
    <glyph glyph-name="four.ss09" horiz-adv-x="606" 
d="M478 243h108v-87h-108v-156h-99v156h-359v87c188 111 284 276 288 457h102c-3 -196 -92 -346 -254 -457h223v130h99v-130z" />
    <glyph glyph-name="period" unicode="." horiz-adv-x="240" 
d="M120 -10c-42 0 -74 31 -74 74c0 42 32 74 74 74s74 -32 74 -74c0 -43 -32 -74 -74 -74z" />
    <glyph glyph-name="comma" unicode="," horiz-adv-x="247" 
d="M121 142c47 0 81 -35 81 -104c0 -88 -56 -162 -132 -180v52c46 16 77 61 80 106c-11 -7 -23 -10 -37 -10c-40 0 -67 28 -67 66c0 41 31 70 75 70z" />
    <glyph glyph-name="uniF8FF" unicode="&#xf8ff;" horiz-adv-x="874" 
d="M87 0v700h700v-700h-700zM580 252c84 0 145 39 145 111c0 141 -226 75 -226 166c0 42 33 60 79 60c58 0 80 -28 86 -68h50c-1 78 -59 112 -136 112c-65 0 -133 -32 -133 -105c0 -142 226 -73 226 -170c0 -47 -46 -61 -87 -61c-55 0 -94 25 -94 75h-53
c1 -85 66 -120 143 -120zM156 259h252v46h-199v119h186v45h-186v111h196v47h-249v-368z" />
    </font>
</defs>
</svg>
