<?xml version="1.0" standalone="no"?>
<!DOCTYPE svg PUBLIC "-//W3C//DTD SVG 1.1//EN" "http://www.w3.org/Graphics/SVG/1.1/DTD/svg11.dtd" >
<svg xmlns="http://www.w3.org/2000/svg" xmlns:xlink="http://www.w3.org/1999/xlink" version="1.1">
<metadata>
Created by FontForge 20201107 at Thu Apr 15 11:48:29 2021
 By Unknown
Copyright \(c\) 2019 by Roger Gaillard. All rights reserved.
</metadata>
<defs>
<font id="ESRebondGrotesqueTRIAL-Light" horiz-adv-x="582" >
  <font-face 
    font-family="ES Rebond Grotesque TRIAL Light"
    font-weight="300"
    font-stretch="normal"
    units-per-em="1000"
    panose-1="0 0 4 0 0 0 0 0 0 0"
    ascent="800"
    descent="-200"
    x-height="500"
    cap-height="700"
    bbox="0 -211 964 710"
    underline-thickness="50"
    underline-position="-100"
    stemh="58"
    stemv="63"
    unicode-range="U+0020-F8FF"
  />
<missing-glyph horiz-adv-x="450" 
d="M84 700h285v-900h-285v900zM300 610v30h-149v-30h59v-33h-60v-30h150v30h-60v33h60zM240 461v63h-90v-94h150v31h-60zM180 493h30v-32h-30v32zM300 376v30h-150v-30h60v-33h-60v-30h90v63h60zM300 262v90h-30v-60h-120v-30h150zM300 140v102h-90v-50h30v20h30v-42h-90v72
h-30v-102h150zM300 -16v102h-150v-102h150zM180 57h90v-43h-90v43zM300 -66v30h-150v-30h63l-63 -42v-30h150v30h-92l63 42h29z" />
    <glyph glyph-name=".notdef" horiz-adv-x="450" 
d="M84 700h285v-900h-285v900zM300 610v30h-149v-30h59v-33h-60v-30h150v30h-60v33h60zM240 461v63h-90v-94h150v31h-60zM180 493h30v-32h-30v32zM300 376v30h-150v-30h60v-33h-60v-30h90v63h60zM300 262v90h-30v-60h-120v-30h150zM300 140v102h-90v-50h30v20h30v-42h-90v72
h-30v-102h150zM300 -16v102h-150v-102h150zM180 57h90v-43h-90v43zM300 -66v30h-150v-30h63l-63 -42v-30h150v30h-92l63 42h29z" />
    <glyph glyph-name="space" unicode=" " horiz-adv-x="258" 
 />
    <glyph glyph-name="A" unicode="A" horiz-adv-x="668" 
d="M652 0h-69l-76 195h-345l-75 -195h-71l280 700h76zM335 640l-150 -387h300z" />
    <glyph glyph-name="B" unicode="B" horiz-adv-x="706" 
d="M507 379c93 -24 147 -88 147 -180c0 -120 -93 -199 -241 -199h-317v700h316c118 0 192 -63 192 -170c0 -75 -36 -127 -97 -151zM538 523c0 74 -48 119 -126 119h-253v-240h254c78 0 125 47 125 121zM159 58h253c109 0 176 53 176 143c0 87 -64 143 -171 143h-258v-286z
" />
    <glyph glyph-name="C" unicode="C" horiz-adv-x="751" 
d="M398 -10c-197 0 -342 146 -342 362c0 215 145 358 340 358c185 0 306 -128 280 -299h-65c19 143 -70 239 -214 239c-160 0 -275 -122 -275 -298c0 -177 115 -302 277 -302c137 0 219 90 243 209h68c-25 -152 -135 -269 -312 -269z" />
    <glyph glyph-name="D" unicode="D" horiz-adv-x="712" 
d="M96 700h241c195 0 329 -138 329 -350c0 -208 -129 -350 -327 -350h-243v700zM159 58h178c158 0 263 117 263 293c0 175 -105 291 -263 291h-178v-584z" />
    <glyph glyph-name="E" unicode="E" horiz-adv-x="619" 
d="M159 341v-283h404v-58h-467v700h457v-58h-394v-243h341v-58h-341z" />
    <glyph glyph-name="F" unicode="F" horiz-adv-x="589" 
d="M553 700v-58h-394v-254h341v-58h-341v-330h-63v700h457z" />
    <glyph glyph-name="G" unicode="G" horiz-adv-x="747" 
d="M401 354h318v-58h-149c52 -23 83 -66 83 -126c0 -105 -96 -180 -248 -180c-218 0 -349 150 -349 361c0 206 127 359 340 359c163 0 272 -89 253 -242h-64c17 123 -68 181 -189 181c-174 0 -274 -125 -274 -298c0 -180 108 -301 283 -301c114 0 183 51 183 126
s-68 120 -187 120v58z" />
    <glyph glyph-name="H" unicode="H" horiz-adv-x="749" 
d="M590 401v299h63v-700h-63v343h-431v-343h-63v700h63v-299h431z" />
    <glyph glyph-name="I" unicode="I" horiz-adv-x="255" 
d="M159 0h-63v700h63v-700z" />
    <glyph glyph-name="J" unicode="J" horiz-adv-x="437" 
d="M184 -10c-134 0 -193 96 -163 218h65c-26 -89 8 -158 100 -158c100 0 120 86 120 153v497h63v-493c0 -76 -22 -217 -185 -217z" />
    <glyph glyph-name="K" unicode="K" horiz-adv-x="674" 
d="M658 0h-78l-292 372l-129 -121v-251h-63v700h63v-373l396 373h83l-307 -288z" />
    <glyph glyph-name="L" unicode="L" horiz-adv-x="599" 
d="M159 700v-642h404v-58h-467v700h63z" />
    <glyph glyph-name="M" unicode="M" horiz-adv-x="869" 
d="M435 76l234 624h104v-700h-63v635l-241 -635h-71l-239 628v-628h-63v700h104z" />
    <glyph glyph-name="N" unicode="N" horiz-adv-x="734" 
d="M575 69v631h63v-700h-92l-387 631v-631h-63v700h92z" />
    <glyph glyph-name="O" unicode="O" horiz-adv-x="795" 
d="M398 -10c-200 0 -342 149 -342 361c0 211 142 359 342 359s341 -148 341 -359c0 -212 -141 -361 -341 -361zM398 50c160 0 276 125 276 300s-116 300 -276 300c-161 0 -276 -124 -276 -299c0 -176 115 -301 276 -301z" />
    <glyph glyph-name="P" unicode="P" horiz-adv-x="648" 
d="M96 700h300c140 0 216 -67 216 -192c0 -126 -76 -195 -217 -195h-236v-313h-63v700zM159 371h237c98 0 150 48 150 137c0 88 -52 134 -150 134h-237v-271z" />
    <glyph glyph-name="Q" unicode="Q" horiz-adv-x="795" 
d="M739 355c0 -226 -170 -361 -385 -417c131 -8 249 -26 334 -47v-58c-149 34 -377 58 -554 58v58c113 0 225 23 318 64c-20 -3 -41 -5 -63 -5c-192 0 -333 145 -333 349s142 353 342 353s341 -148 341 -355zM122 358c0 -174 123 -290 278 -290c153 0 274 115 274 288
c0 167 -114 294 -276 294c-161 0 -276 -125 -276 -292z" />
    <glyph glyph-name="R" unicode="R" horiz-adv-x="696" 
d="M490 349c117 -51 138 -209 150 -349h-63c-12 157 -35 322 -175 322h-243v-322h-63v700h311c138 0 216 -70 216 -179c0 -86 -49 -147 -133 -172zM159 642v-262h231c107 0 168 47 168 133c0 82 -54 129 -152 129h-247z" />
    <glyph glyph-name="S" unicode="S" horiz-adv-x="659" 
d="M339 -10c-175 0 -286 98 -276 247h63c-6 -120 81 -187 213 -187c118 0 195 52 195 139c0 210 -456 56 -456 319c0 124 103 202 251 202c168 0 272 -102 248 -242h-64c21 111 -61 182 -185 182c-107 0 -184 -52 -184 -137c0 -204 456 -55 456 -320
c0 -130 -109 -203 -261 -203z" />
    <glyph glyph-name="T" unicode="T" horiz-adv-x="625" 
d="M34 700h557v-58h-246v-642h-63v642h-248v58z" />
    <glyph glyph-name="U" unicode="U" horiz-adv-x="725" 
d="M363 -10c-187 0 -275 103 -275 321v389h63v-389c0 -178 68 -262 211 -262c144 0 212 84 212 262v389h63v-389c0 -218 -88 -321 -274 -321z" />
    <glyph glyph-name="V" unicode="V" horiz-adv-x="636" 
d="M319 76l231 624h70l-266 -700h-71l-267 700h71z" />
    <glyph glyph-name="W" unicode="W" horiz-adv-x="980" 
d="M711 79l185 621h68l-214 -700h-78l-182 609l-178 -609h-78l-218 700h69l187 -622l182 622h74z" />
    <glyph glyph-name="X" unicode="X" horiz-adv-x="651" 
d="M364 370l271 -370h-76l-233 318l-236 -318h-74l273 369l-245 331h76l207 -280l208 280h74z" />
    <glyph glyph-name="Y" unicode="Y" horiz-adv-x="608" 
d="M520 700h72l-254 -397v-303h-63v303l-259 397h74l216 -342z" />
    <glyph glyph-name="Z" unicode="Z" horiz-adv-x="612" 
d="M556 635l-438 -577h448v-58h-520v65l438 577h-428v58h500v-65z" />
    <glyph glyph-name="Q.ss07" horiz-adv-x="795" 
d="M692 -151c71 0 140 11 248 42v-58c-106 -32 -177 -44 -251 -44c-224 0 -310 102 -581 103c-15 0 -31 0 -53 -3v60c179 5 302 26 393 63c-17 -3 -34 -4 -52 -4c-190 0 -340 141 -340 350c0 203 142 352 342 352c199 0 341 -147 341 -355c0 -240 -191 -380 -450 -421
c160 -25 239 -85 403 -85zM122 358c0 -174 123 -290 278 -290c153 0 274 115 274 288c0 167 -114 294 -276 294c-161 0 -276 -125 -276 -292z" />
    <glyph glyph-name="a" unicode="a" horiz-adv-x="523" 
d="M263 510c142 0 199 -98 199 -229v-281h-59v102c-36 -69 -102 -112 -191 -112c-102 0 -173 56 -173 145c0 101 89 164 224 164c47 0 97 -8 139 -21v4c0 94 -31 173 -140 173c-85 0 -140 -47 -121 -130h-64c-26 107 60 185 186 185zM218 44c105 0 178 74 185 178
c-40 14 -89 23 -136 23c-102 0 -164 -43 -164 -111c0 -57 45 -90 115 -90z" />
    <glyph glyph-name="b" unicode="b" 
d="M313 510c134 0 227 -104 227 -260c0 -157 -93 -260 -227 -260c-83 0 -147 40 -184 107v-97h-60v700h60v-297c37 67 101 107 184 107zM301 45c106 0 175 82 175 205c0 124 -70 205 -174 205c-106 0 -176 -82 -176 -205s71 -205 175 -205z" />
    <glyph glyph-name="c" unicode="c" horiz-adv-x="554" 
d="M283 -10c-145 0 -241 104 -241 261c0 156 96 259 244 259c147 0 229 -102 207 -238h-63c16 113 -43 183 -145 183c-109 0 -179 -82 -179 -204c0 -123 70 -206 177 -206c84 0 147 53 168 137h65c-20 -103 -99 -192 -233 -192z" />
    <glyph glyph-name="d" unicode="d" 
d="M453 400v300h60v-700h-60v100c-37 -69 -102 -110 -186 -110c-132 0 -225 102 -225 260c0 156 91 260 225 260c84 0 149 -41 186 -110zM280 45c106 0 176 82 176 205s-70 205 -176 205c-104 0 -174 -82 -174 -205s70 -205 174 -205z" />
    <glyph glyph-name="e" unicode="e" horiz-adv-x="550" 
d="M441 149h67c-32 -99 -116 -159 -226 -159c-145 0 -240 103 -240 260c0 158 96 260 244 260c167 0 247 -131 202 -289h-381c10 -109 76 -176 174 -176c75 0 135 39 160 104zM284 456c-103 0 -169 -69 -177 -180h330c15 104 -44 180 -153 180z" />
    <glyph glyph-name="f" unicode="f" horiz-adv-x="361" 
d="M347 569h-56c16 53 0 86 -40 86c-38 0 -60 -32 -60 -84v-71h155v-55h-155v-445h-60v445h-98v55h98v71c0 87 44 139 123 139c84 0 118 -59 93 -141z" />
    <glyph glyph-name="g" unicode="g" horiz-adv-x="546" 
d="M291 106c117 -6 204 -65 204 -159c0 -93 -86 -157 -216 -157s-224 66 -241 170h70c9 -69 76 -115 171 -115c91 0 153 42 153 102c0 62 -64 103 -164 103c-51 0 -107 -10 -155 -24v62c86 14 160 41 216 75c-24 -8 -50 -12 -79 -12c-118 0 -200 69 -200 176
c0 109 87 183 215 183c69 0 126 -21 164 -57c24 15 23 75 9 109h60c16 -58 1 -120 -41 -145c15 -25 23 -55 23 -87c0 -96 -70 -175 -189 -224zM113 326c0 -76 61 -127 153 -127c90 0 151 51 151 127s-59 128 -151 128c-91 0 -153 -51 -153 -128z" />
    <glyph glyph-name="h" unicode="h" horiz-adv-x="540" 
d="M314 510c114 0 165 -81 165 -209v-301h-60v301c0 95 -36 152 -119 152c-101 0 -171 -86 -171 -215v-238h-60v700h60v-312c33 77 100 122 185 122z" />
    <glyph glyph-name="i" unicode="i" horiz-adv-x="208" 
d="M104 589c-27 0 -48 21 -48 48s21 48 48 48s48 -21 48 -48s-21 -48 -48 -48zM134 0h-60v500h60v-500z" />
    <glyph glyph-name="j" unicode="j" horiz-adv-x="250" 
d="M146 589c-27 0 -48 21 -48 48s21 48 48 48s48 -21 48 -48s-21 -48 -48 -48zM65 -210c-25 0 -49 6 -65 14v56c18 -9 40 -15 58 -15c58 0 58 62 58 96v559h60v-556c0 -36 0 -154 -111 -154z" />
    <glyph glyph-name="k" unicode="k" horiz-adv-x="537" 
d="M329 185c85 -27 151 -90 175 -185h-68c-25 103 -112 162 -223 162v50c119 0 199 53 199 138c0 64 -45 103 -112 103c-99 0 -171 -86 -171 -215v-238h-60v700h60v-313c33 77 101 123 185 123c98 0 162 -63 162 -156c0 -86 -56 -145 -147 -169z" />
    <glyph glyph-name="l" unicode="l" horiz-adv-x="208" 
d="M134 0h-60v700h60v-700z" />
    <glyph glyph-name="m" unicode="m" horiz-adv-x="849" 
d="M624 510c106 0 164 -76 164 -191v-319h-60v306c0 88 -42 147 -117 147c-91 0 -153 -86 -153 -212v-241h-60v306c0 89 -41 147 -115 147c-89 0 -154 -84 -154 -212v-241h-60v500h60v-102c25 57 81 112 168 112c80 0 135 -45 154 -119c31 74 95 119 173 119z" />
    <glyph glyph-name="n" unicode="n" horiz-adv-x="540" 
d="M317 510c162 0 162 -157 162 -227v-283h-60v279c0 61 -1 174 -118 174c-101 0 -172 -85 -172 -215v-238h-60v500h60v-110c36 76 104 120 188 120z" />
    <glyph glyph-name="o" unicode="o" horiz-adv-x="565" 
d="M283 -10c-145 0 -241 104 -241 260s96 260 241 260c144 0 240 -104 240 -260s-96 -260 -240 -260zM283 45c106 0 176 82 176 205s-70 205 -176 205c-107 0 -177 -82 -177 -205s70 -205 177 -205z" />
    <glyph glyph-name="p" unicode="p" 
d="M312 510c135 0 228 -104 228 -260c0 -157 -94 -260 -228 -260c-82 0 -146 40 -183 107v-297h-60v700h60v-97c37 67 101 107 183 107zM301 45c105 0 175 82 175 205s-70 205 -175 205s-175 -82 -175 -205s71 -205 175 -205z" />
    <glyph glyph-name="q" unicode="q" 
d="M453 402v98h60v-700h-60v299c-37 -68 -101 -109 -183 -109c-135 0 -228 103 -228 260c0 156 93 260 228 260c83 0 147 -40 183 -108zM280 45c106 0 176 82 176 205s-70 205 -176 205c-104 0 -174 -82 -174 -205s70 -205 174 -205z" />
    <glyph glyph-name="r" unicode="r" horiz-adv-x="415" 
d="M270 510c71 0 117 -53 117 -123c0 -29 -7 -56 -18 -78h-64c13 21 18 46 18 67c0 46 -28 77 -71 77c-70 0 -123 -84 -123 -210v-243h-60v500h60v-98c29 68 79 108 141 108z" />
    <glyph glyph-name="s" unicode="s" horiz-adv-x="498" 
d="M257 -10c-138 0 -225 75 -213 201h59c-11 -91 49 -149 155 -149c84 0 137 37 137 91c0 136 -341 46 -341 229c0 92 87 148 195 148c131 0 215 -80 193 -185h-59c17 78 -43 133 -136 133c-75 0 -131 -37 -131 -91c0 -134 341 -43 341 -229c0 -93 -82 -148 -200 -148z" />
    <glyph glyph-name="t" unicode="t" horiz-adv-x="356" 
d="M321 500v-55h-142v-313c0 -46 9 -86 70 -86c23 0 43 5 61 14v-56c-18 -8 -43 -14 -71 -14c-116 0 -120 98 -120 141v314h-89v55h89v129h60v-129h142z" />
    <glyph glyph-name="u" unicode="u" horiz-adv-x="530" 
d="M401 247v253h60v-500h-60v111c-38 -81 -102 -121 -179 -121c-133 0 -161 121 -161 215v295h60v-294c0 -72 18 -159 115 -159c88 0 165 73 165 200z" />
    <glyph glyph-name="v" unicode="v" horiz-adv-x="467" 
d="M234 67l164 433h62l-192 -500h-71l-190 500h64z" />
    <glyph glyph-name="w" unicode="w" horiz-adv-x="758" 
d="M548 75l136 425h62l-163 -500h-68l-136 411l-132 -411h-68l-167 500h64l137 -427l135 427h64z" />
    <glyph glyph-name="x" unicode="x" horiz-adv-x="492" 
d="M284 261l190 -261h-76l-153 210l-153 -210h-74l189 260l-175 240h76l138 -191l138 191h74z" />
    <glyph glyph-name="y" unicode="y" horiz-adv-x="467" 
d="M245 44l152 456h63l-190 -553c-35 -103 -95 -155 -178 -155c-29 0 -56 6 -77 15v56c23 -10 47 -15 71 -15c63 0 103 41 123 100l7 21l-206 531h65z" />
    <glyph glyph-name="z" unicode="z" horiz-adv-x="477" 
d="M434 445l-316 -390h326v-55h-400v55l316 390h-296v55h370v-55z" />
    <glyph glyph-name="a.ss02" 
d="M453 401v99h60v-500h-60v98c-36 -68 -100 -108 -183 -108c-135 0 -228 103 -228 260c0 156 93 260 228 260c82 0 146 -41 183 -109zM280 45c106 0 176 82 176 205s-70 205 -176 205c-104 0 -174 -82 -174 -205s70 -205 174 -205z" />
    <glyph glyph-name="g.ss03" 
d="M453 405v95h60v-459c0 -162 -94 -251 -233 -251c-115 0 -199 60 -220 162h64c14 -67 72 -107 154 -107c115 0 175 77 175 195v70c-37 -66 -102 -104 -184 -104c-133 0 -227 99 -227 252s94 252 227 252c84 0 148 -40 184 -105zM280 61c105 0 174 78 174 196
c0 116 -68 198 -174 198c-105 0 -174 -79 -174 -197c0 -115 67 -197 174 -197z" />
    <glyph glyph-name="k.ss04" horiz-adv-x="514" 
d="M496 0h-75l-196 250l-96 -98v-152h-60v700h60v-473l259 273h79l-202 -208z" />
    <glyph glyph-name="f.ss05" horiz-adv-x="361" 
d="M347 569h-56c16 53 0 86 -40 86c-38 0 -60 -32 -60 -84v-71h155v-55h-155v-645h-60v645h-98v55h98v71c0 87 44 139 123 139c84 0 118 -59 93 -141z" />
    <glyph glyph-name="one" unicode="1" horiz-adv-x="403" 
d="M247 700h60v-700h-63v572c-51 -84 -131 -137 -227 -167v65c104 30 197 112 230 230z" />
    <glyph glyph-name="two" unicode="2" horiz-adv-x="613" 
d="M179 58h382v-58h-502v59c271 105 431 243 431 405c0 105 -68 186 -181 186s-183 -81 -183 -196c0 -75 30 -131 65 -178h-71c-32 45 -59 99 -59 178c0 146 93 256 247 256c153 0 247 -108 247 -246c0 -180 -163 -321 -376 -406z" />
    <glyph glyph-name="three" unicode="3" horiz-adv-x="620" 
d="M428 374c85 -30 136 -94 136 -179c0 -123 -105 -205 -257 -205c-167 0 -271 100 -248 253h66c-21 -122 58 -193 183 -193c112 0 190 57 190 146s-76 148 -193 148h-72v58h72c99 0 163 47 163 124s-66 124 -164 124c-114 0 -183 -64 -160 -162h-60c-33 128 69 222 223 222
c134 0 227 -72 227 -182c0 -72 -39 -126 -106 -154z" />
    <glyph glyph-name="four" unicode="4" horiz-adv-x="590" 
d="M449 222h121v-58h-121v-164h-63v164h-366v58c159 119 295 293 369 478h60v-478zM386 222v342c-65 -125 -162 -248 -281 -342h281z" />
    <glyph glyph-name="five" unicode="5" horiz-adv-x="601" 
d="M302 487c155 0 243 -109 243 -247c0 -145 -99 -250 -251 -250c-159 0 -259 113 -234 253h65c-21 -111 51 -193 169 -193c116 0 185 85 185 189c0 99 -61 188 -187 188c-72 0 -131 -28 -171 -72l-60 36c31 83 44 200 44 309h405v-58h-344c-3 -84 -13 -156 -28 -208
c42 34 99 53 164 53z" />
    <glyph glyph-name="six" unicode="6" horiz-adv-x="629" 
d="M336 450c135 0 237 -93 237 -229c0 -134 -101 -231 -242 -231c-169 0 -275 140 -275 360c0 219 105 360 278 360c143 0 237 -98 207 -227h-61c23 99 -45 167 -146 167c-133 0 -212 -115 -212 -300c0 -17 1 -34 2 -51c28 91 104 151 212 151zM332 50c108 0 175 78 175 171
c0 90 -64 169 -174 169c-111 0 -177 -80 -177 -173c0 -87 64 -167 176 -167z" />
    <glyph glyph-name="seven" unicode="7" horiz-adv-x="549" 
d="M30 642v58h488v-58c-119 -151 -241 -342 -270 -642h-71c22 237 116 461 269 642h-416z" />
    <glyph glyph-name="eight" unicode="8" horiz-adv-x="597" 
d="M419 382c76 -34 122 -103 122 -184c0 -121 -101 -208 -242 -208c-148 0 -243 92 -243 209c0 81 47 149 122 183c-58 29 -94 80 -94 147c0 104 88 181 215 181c128 0 214 -78 214 -180c0 -67 -36 -119 -94 -148zM299 650c-89 0 -149 -48 -149 -120s59 -119 150 -119
c89 0 148 47 148 119c0 71 -59 120 -149 120zM299 50c108 0 176 62 176 151c0 88 -67 151 -176 151s-177 -64 -177 -151c0 -89 68 -151 177 -151z" />
    <glyph glyph-name="nine" unicode="9" horiz-adv-x="629" 
d="M298 710c168 0 275 -140 275 -360c0 -219 -105 -360 -279 -360c-143 0 -236 98 -206 227h61c-23 -99 45 -167 145 -167c134 0 213 115 213 300c0 17 -1 34 -2 50c-28 -90 -105 -150 -212 -150c-135 0 -237 93 -237 229c0 134 100 231 242 231zM296 310
c111 0 176 80 176 173c0 87 -63 167 -175 167c-108 0 -175 -78 -175 -171c0 -90 64 -169 174 -169z" />
    <glyph glyph-name="four.ss09" horiz-adv-x="590" 
d="M449 222h121v-58h-121v-164h-63v164h-366v58c206 108 315 289 315 478h66c0 -197 -101 -365 -283 -478h268v152h63v-152z" />
    <glyph glyph-name="period" unicode="." horiz-adv-x="220" 
d="M110 -9c-31 0 -54 23 -54 54s23 54 54 54s54 -23 54 -54s-23 -54 -54 -54z" />
    <glyph glyph-name="comma" unicode="," horiz-adv-x="236" 
d="M112 106c41 0 68 -35 68 -94c0 -73 -42 -132 -106 -151v39c42 15 68 56 68 102c0 6 0 12 -1 18c-9 -9 -22 -14 -36 -14c-29 0 -49 20 -49 48c0 31 23 52 56 52z" />
    <glyph glyph-name="uniF8FF" unicode="&#xf8ff;" horiz-adv-x="892" 
d="M96 0v700h700v-700h-700zM589 252c84 0 145 39 145 111c0 141 -226 75 -226 166c0 42 33 60 79 60c58 0 80 -28 86 -68h50c-1 78 -59 112 -136 112c-65 0 -133 -32 -133 -105c0 -142 226 -73 226 -170c0 -47 -46 -61 -87 -61c-55 0 -94 25 -94 75h-53
c1 -85 66 -120 143 -120zM165 259h252v46h-199v119h186v45h-186v111h196v47h-249v-368z" />
    </font>
</defs>
</svg>
