<?xml version="1.0" standalone="no"?>
<!DOCTYPE svg PUBLIC "-//W3C//DTD SVG 1.1//EN" "http://www.w3.org/Graphics/SVG/1.1/DTD/svg11.dtd" >
<svg xmlns="http://www.w3.org/2000/svg" xmlns:xlink="http://www.w3.org/1999/xlink" version="1.1">
<metadata>
Created by FontForge 20201107 at Thu Apr 15 11:48:30 2021
 By Unknown
Copyright \(c\) 2019 by Roger Gaillard. All rights reserved.
</metadata>
<defs>
<font id="ESRebondGrotesqueTRIAL-Bold" horiz-adv-x="608" >
  <font-face 
    font-family="ES Rebond Grotesque TRIAL"
    font-weight="700"
    font-stretch="normal"
    units-per-em="1000"
    panose-1="0 0 8 0 0 0 0 0 0 0"
    ascent="800"
    descent="-200"
    x-height="500"
    cap-height="700"
    bbox="0 -215 1016 726"
    underline-thickness="50"
    underline-position="-100"
    stemh="118"
    stemv="145"
    unicode-range="U+0020-F8FF"
  />
<missing-glyph horiz-adv-x="450" 
d="M84 700h285v-900h-285v900zM300 610v30h-149v-30h59v-33h-60v-30h150v30h-60v33h60zM240 461v63h-90v-94h150v31h-60zM180 493h30v-32h-30v32zM300 376v30h-150v-30h60v-33h-60v-30h90v63h60zM300 262v90h-30v-60h-120v-30h150zM300 140v102h-90v-50h30v20h30v-42h-90v72
h-30v-102h150zM300 -16v102h-150v-102h150zM180 57h90v-43h-90v43zM300 -66v30h-150v-30h63l-63 -42v-30h150v30h-92l63 42h29z" />
    <glyph glyph-name=".notdef" horiz-adv-x="450" 
d="M84 700h285v-900h-285v900zM300 610v30h-149v-30h59v-33h-60v-30h150v30h-60v33h60zM240 461v63h-90v-94h150v31h-60zM180 493h30v-32h-30v32zM300 376v30h-150v-30h60v-33h-60v-30h90v63h60zM300 262v90h-30v-60h-120v-30h150zM300 140v102h-90v-50h30v20h30v-42h-90v72
h-30v-102h150zM300 -16v102h-150v-102h150zM180 57h90v-43h-90v43zM300 -66v30h-150v-30h63l-63 -42v-30h150v30h-92l63 42h29z" />
    <glyph glyph-name="space" unicode=" " horiz-adv-x="236" 
 />
    <glyph glyph-name="A" unicode="A" horiz-adv-x="734" 
d="M727 0h-148l-53 140h-312l-53 -140h-154l272 700h175zM370 556l-112 -298h224z" />
    <glyph glyph-name="B" unicode="B" horiz-adv-x="706" 
d="M531 378c87 -26 134 -86 134 -175c0 -129 -98 -203 -274 -203h-315v700h315c149 0 231 -64 231 -177c0 -72 -32 -120 -91 -145zM473 505c0 51 -28 77 -82 77h-171v-159h170c55 0 83 29 83 82zM220 118h171c81 0 125 34 125 97c0 61 -43 94 -124 94h-172v-191z" />
    <glyph glyph-name="C" unicode="C" horiz-adv-x="766" 
d="M403 -15c-223 0 -360 162 -360 366c0 212 146 364 356 364c199 0 338 -134 308 -311h-149c20 115 -50 189 -157 189c-128 0 -209 -107 -209 -242c0 -141 86 -244 211 -244c100 0 167 66 182 153h153c-24 -168 -154 -275 -335 -275z" />
    <glyph glyph-name="D" unicode="D" horiz-adv-x="734" 
d="M76 700h282c205 0 343 -139 343 -349s-136 -351 -342 -351h-283v700zM220 118h138c113 0 195 89 195 234c0 138 -74 230 -195 230h-138v-464z" />
    <glyph glyph-name="E" unicode="E" horiz-adv-x="625" 
d="M220 310v-192h362v-118h-506v700h496v-118h-352v-154h300v-118h-300z" />
    <glyph glyph-name="F" unicode="F" horiz-adv-x="595" 
d="M572 700v-118h-352v-182h299v-118h-299v-282h-144v700h496z" />
    <glyph glyph-name="G" unicode="G" horiz-adv-x="768" 
d="M386 375h355v-118h-127c38 -21 61 -55 61 -99c0 -96 -109 -173 -270 -173c-220 0 -362 147 -362 368c0 215 136 362 354 362c175 0 301 -95 286 -268h-148c10 97 -51 146 -140 146c-126 0 -203 -97 -203 -240c0 -148 81 -246 211 -246c72 0 123 30 123 75s-52 75 -140 75
v118z" />
    <glyph glyph-name="H" unicode="H" horiz-adv-x="762" 
d="M542 425v275h144v-700h-144v307h-322v-307h-144v700h144v-275h322z" />
    <glyph glyph-name="I" unicode="I" horiz-adv-x="296" 
d="M220 0h-144v700h144v-700z" />
    <glyph glyph-name="J" unicode="J" horiz-adv-x="496" 
d="M219 -15c-159 0 -239 98 -194 251h136c-24 -87 -1 -131 61 -131c65 0 77 50 77 107v488h144v-469c0 -106 -33 -246 -224 -246z" />
    <glyph glyph-name="K" unicode="K" horiz-adv-x="759" 
d="M753 0h-178l-241 330l-114 -110v-220h-144v700h144v-316l319 316h177l-283 -274z" />
    <glyph glyph-name="L" unicode="L" horiz-adv-x="605" 
d="M220 700v-582h362v-118h-506v700h144z" />
    <glyph glyph-name="M" unicode="M" horiz-adv-x="954" 
d="M479 164l157 536h242v-700h-145v579l-182 -579h-148l-183 578v-578h-144v700h245z" />
    <glyph glyph-name="N" unicode="N" horiz-adv-x="758" 
d="M538 181v519h144v-700h-199l-263 547v-547h-144v700h212z" />
    <glyph glyph-name="O" unicode="O" horiz-adv-x="797" 
d="M399 -15c-208 0 -356 152 -356 366s148 364 356 364s355 -150 355 -364s-147 -366 -355 -366zM398 107c123 0 207 98 207 244c0 144 -84 242 -207 242s-206 -98 -206 -242c0 -145 83 -244 206 -244z" />
    <glyph glyph-name="P" unicode="P" horiz-adv-x="668" 
d="M76 700h321c157 0 248 -78 248 -218c0 -139 -91 -223 -248 -223h-177v-259h-144v700zM220 377h177c64 0 99 37 99 104c0 66 -35 101 -99 101h-177v-205z" />
    <glyph glyph-name="Q" unicode="Q" horiz-adv-x="797" 
d="M754 350c0 -235 -181 -359 -369 -403c119 -4 220 -17 309 -35v-118c-160 33 -364 52 -558 52v118c101 3 203 15 288 47c-16 -2 -33 -3 -49 -3c-176 0 -332 130 -332 345c0 207 144 362 356 362c208 0 355 -151 355 -365zM192 352c0 -145 85 -241 207 -241s206 95 206 240
c0 143 -83 242 -207 242c-123 0 -206 -98 -206 -241z" />
    <glyph glyph-name="R" unicode="R" horiz-adv-x="721" 
d="M539 307c92 -46 130 -152 139 -307h-145c-10 184 -45 267 -150 267h-163v-267h-144v700h335c159 0 251 -79 251 -209c0 -89 -45 -153 -123 -184zM220 582v-204h189c68 0 104 36 104 103c0 66 -36 101 -104 101h-189z" />
    <glyph glyph-name="S" unicode="S" horiz-adv-x="695" 
d="M351 -15c-185 0 -302 97 -290 249h145c-5 -82 50 -130 148 -130c85 0 136 37 136 91c0 156 -420 23 -420 298c0 139 108 222 275 222c182 0 292 -99 274 -248h-145c12 82 -39 129 -132 129c-77 0 -126 -34 -126 -87c0 -156 421 -27 421 -298c0 -141 -112 -226 -286 -226z
" />
    <glyph glyph-name="T" unicode="T" horiz-adv-x="665" 
d="M23 700h619v-118h-237v-582h-145v582h-237v118z" />
    <glyph glyph-name="U" unicode="U" horiz-adv-x="737" 
d="M369 -15c-196 0 -306 115 -306 323v392h144v-381c0 -139 55 -209 161 -209c107 0 162 70 162 209v381h145v-392c0 -208 -111 -323 -306 -323z" />
    <glyph glyph-name="V" unicode="V" horiz-adv-x="695" 
d="M350 157l188 543h150l-259 -700h-158l-264 700h154z" />
    <glyph glyph-name="W" unicode="W" horiz-adv-x="1022" 
d="M720 160l146 540h150l-206 -700h-168l-132 561l-128 -561h-169l-206 700h150l147 -542l121 542h173z" />
    <glyph glyph-name="X" unicode="X" horiz-adv-x="727" 
d="M460 361l261 -361h-163l-196 282l-197 -282h-158l260 363l-235 337h164l170 -245l171 245h159z" />
    <glyph glyph-name="Y" unicode="Y" horiz-adv-x="703" 
d="M538 700h158l-270 -419v-281h-144v282l-275 418h165l179 -293z" />
    <glyph glyph-name="Z" unicode="Z" horiz-adv-x="628" 
d="M585 590l-381 -472h391v-118h-562v110l381 472h-364v118h535v-110z" />
    <glyph glyph-name="Q.ss07" horiz-adv-x="797" 
d="M690 -98c64 0 132 8 225 32v-118c-88 -23 -161 -31 -229 -31c-191 0 -309 66 -531 66c-31 0 -64 -1 -102 -6v119c153 3 273 15 365 46c-13 -1 -25 -2 -38 -2c-177 0 -337 128 -337 346c0 209 148 361 356 361c205 0 355 -148 355 -366c0 -234 -172 -359 -400 -402
c120 -11 207 -45 336 -45zM192 352c0 -145 85 -241 207 -241s206 95 206 240c0 143 -83 242 -207 242c-123 0 -206 -98 -206 -241z" />
    <glyph glyph-name="a" unicode="a" horiz-adv-x="541" 
d="M269 515c153 0 231 -91 231 -232v-283h-122v86c-37 -65 -98 -101 -180 -101c-109 0 -173 64 -173 150c0 101 89 162 230 162c38 0 76 -4 109 -11c-1 66 -25 114 -96 114c-51 0 -81 -25 -72 -70h-136c-26 115 77 185 209 185zM229 88c64 0 116 40 139 101
c-32 10 -70 15 -100 15c-75 0 -107 -25 -107 -63c0 -35 26 -53 68 -53z" />
    <glyph glyph-name="b" unicode="b" 
d="M354 515c133 0 228 -106 228 -265s-96 -265 -230 -265c-74 0 -132 33 -169 90v-75h-135v700h135v-276c37 58 96 91 171 91zM312 102c78 0 130 59 130 148c0 90 -53 148 -130 148c-78 0 -129 -59 -129 -148s51 -148 129 -148z" />
    <glyph glyph-name="c" unicode="c" horiz-adv-x="568" 
d="M289 -15c-158 0 -263 106 -263 265c0 160 104 265 266 265s272 -106 228 -265h-134c19 94 -19 148 -94 148c-77 0 -125 -57 -125 -147c0 -91 50 -149 124 -149c51 0 87 29 106 75h148c-27 -110 -116 -192 -256 -192z" />
    <glyph glyph-name="d" unicode="d" horiz-adv-x="602" 
d="M419 432v268h136v-700h-136v67c-37 -52 -94 -82 -165 -82c-133 0 -228 106 -228 265s94 265 227 265c71 0 128 -30 166 -83zM297 102c77 0 129 59 129 148s-52 148 -129 148c-78 0 -130 -59 -130 -148s52 -148 130 -148z" />
    <glyph glyph-name="e" unicode="e" horiz-adv-x="569" 
d="M395 162h148c-30 -108 -123 -177 -253 -177c-161 0 -264 106 -264 265s105 265 264 265c182 0 283 -136 230 -298h-351c10 -72 51 -115 123 -115c50 0 87 21 103 60zM289 402c-64 0 -105 -35 -118 -100h218c6 60 -29 100 -100 100z" />
    <glyph glyph-name="f" unicode="f" horiz-adv-x="439" 
d="M427 548h-118c11 36 2 57 -22 57s-35 -21 -35 -57v-48h174v-116h-174v-384h-136v384h-100v116h100v48c0 105 63 167 173 167c116 0 161 -68 138 -167z" />
    <glyph glyph-name="g" unicode="g" horiz-adv-x="550" 
d="M345 112c102 -15 168 -72 168 -155c0 -103 -105 -172 -240 -172c-133 0 -236 68 -257 178h151c9 -39 48 -61 105 -61c56 0 99 22 99 62c0 39 -38 67 -118 67c-44 0 -98 -8 -144 -20v89c84 10 147 33 191 64c-20 -5 -42 -8 -66 -8c-122 0 -205 67 -205 172
c0 111 93 187 233 187c72 0 131 -20 171 -55c9 30 5 68 -3 102h101c11 -58 -10 -125 -51 -165c9 -21 14 -44 14 -69c0 -82 -53 -162 -149 -216zM170 326c0 -43 37 -72 92 -72s91 29 91 72s-36 72 -91 72s-92 -29 -92 -72z" />
    <glyph glyph-name="h" unicode="h" horiz-adv-x="550" 
d="M344 515c110 0 165 -80 165 -214v-301h-136v301c0 61 -27 101 -79 101c-64 0 -111 -63 -111 -156v-246h-135v700h135v-287c27 64 85 102 161 102z" />
    <glyph glyph-name="i" unicode="i" horiz-adv-x="241" 
d="M121 564c-46 0 -81 35 -81 81s35 81 81 81s81 -35 81 -81s-35 -81 -81 -81zM188 0h-136v500h136v-500z" />
    <glyph glyph-name="j" unicode="j" horiz-adv-x="303" 
d="M182 564c-46 0 -81 35 -81 81s35 81 81 81s81 -35 81 -81s-35 -81 -81 -81zM85 -215c-35 0 -62 7 -85 18v116c19 -11 45 -17 64 -17c50 0 50 46 50 85v513h136v-513c0 -50 0 -202 -165 -202z" />
    <glyph glyph-name="k" unicode="k" horiz-adv-x="580" 
d="M414 191c69 -34 120 -100 140 -191h-159c-12 87 -63 140 -129 151v87c69 0 113 38 113 90c0 45 -32 69 -78 69c-69 0 -118 -58 -118 -151v-246h-135v700h135v-289c28 65 90 104 171 104c104 0 166 -63 166 -159c0 -76 -40 -135 -106 -165z" />
    <glyph glyph-name="l" unicode="l" horiz-adv-x="241" 
d="M188 0h-135v700h135v-700z" />
    <glyph glyph-name="m" unicode="m" horiz-adv-x="848" 
d="M649 515c104 0 158 -76 158 -205v-310h-136v304c0 56 -24 94 -70 94c-61 0 -104 -59 -104 -150v-248h-136v304c0 59 -25 98 -72 98c-60 0 -106 -60 -106 -156v-246h-135v500h135v-89c26 62 85 104 159 104c72 0 127 -42 147 -105c27 64 84 105 160 105z" />
    <glyph glyph-name="n" unicode="n" horiz-adv-x="550" 
d="M347 515c162 0 162 -161 162 -230v-285h-136v284c0 47 0 118 -78 118c-65 0 -112 -63 -112 -156v-246h-135v500h135v-89c29 65 88 104 164 104z" />
    <glyph glyph-name="o" unicode="o" horiz-adv-x="578" 
d="M289 -15c-158 0 -263 106 -263 265s105 265 263 265s263 -106 263 -265s-105 -265 -263 -265zM289 102c73 0 122 59 122 148c0 90 -49 148 -122 148s-122 -58 -122 -148c0 -89 49 -148 122 -148z" />
    <glyph glyph-name="p" unicode="p" 
d="M352 515c134 0 230 -106 230 -265s-96 -265 -229 -265c-75 0 -133 33 -170 90v-275h-135v700h135v-75c37 57 95 90 169 90zM312 101c77 0 130 60 130 149s-53 148 -130 148c-78 0 -129 -59 -129 -148s51 -149 129 -149z" />
    <glyph glyph-name="q" unicode="q" 
d="M425 426v74h136v-700h-136v274c-37 -57 -96 -89 -170 -89c-134 0 -229 106 -229 264c0 160 96 266 230 266c75 0 132 -33 169 -89zM297 101c77 0 129 60 129 149s-52 148 -129 148c-78 0 -130 -59 -130 -148s52 -149 130 -149z" />
    <glyph glyph-name="r" unicode="r" horiz-adv-x="477" 
d="M323 515c84 0 138 -62 138 -155c0 -40 -10 -81 -27 -115h-141c19 32 29 61 29 88c0 39 -21 64 -54 64c-49 0 -85 -59 -85 -151v-246h-135v500h135v-85c26 63 75 100 140 100z" />
    <glyph glyph-name="s" unicode="s" horiz-adv-x="512" 
d="M258 -15c-145 0 -237 72 -233 188h131c-3 -50 36 -81 102 -81c53 0 90 20 90 50c0 85 -317 18 -317 208c0 103 94 165 221 165c137 0 239 -71 219 -189h-132c12 49 -26 82 -87 82c-51 0 -81 -23 -81 -51c0 -88 317 -16 317 -207c0 -104 -95 -165 -230 -165z" />
    <glyph glyph-name="t" unicode="t" horiz-adv-x="406" 
d="M388 500v-116h-143v-218c0 -36 10 -64 61 -64c28 0 47 8 72 22v-118c-24 -13 -57 -21 -98 -21c-159 0 -171 116 -171 180v219h-99v116h99v136h136v-136h143z" />
    <glyph glyph-name="u" unicode="u" horiz-adv-x="546" 
d="M362 248v252h136v-500h-136v82c-34 -60 -91 -94 -160 -94c-140 0 -161 143 -161 231v281h136v-281c0 -62 15 -118 77 -118c66 0 108 60 108 147z" />
    <glyph glyph-name="v" unicode="v" horiz-adv-x="520" 
d="M260 124l115 376h143l-175 -500h-166l-174 500h144z" />
    <glyph glyph-name="w" unicode="w" horiz-adv-x="815" 
d="M569 135l96 365h142l-148 -500h-166l-85 332l-85 -332h-166l-149 500h144l93 -372l92 372h144z" />
    <glyph glyph-name="x" unicode="x" horiz-adv-x="548" 
d="M356 262l186 -262h-157l-112 168l-113 -168h-153l186 262l-165 238h149l96 -145l93 145h155z" />
    <glyph glyph-name="y" unicode="y" horiz-adv-x="520" 
d="M266 137l109 363h142l-182 -537c-21 -61 -69 -177 -215 -177c-26 0 -56 4 -84 15v115c26 -9 49 -14 69 -14c57 0 85 36 101 71l-203 527h144z" />
    <glyph glyph-name="z" unicode="z" horiz-adv-x="497" 
d="M464 427l-274 -325h284v-102h-435v102l246 289h-230v109h409v-73z" />
    <glyph glyph-name="a.ss02" 
d="M425 427v73h136v-500h-136v73c-37 -56 -95 -88 -169 -88c-136 0 -230 107 -230 264c0 160 96 266 230 266c74 0 132 -32 169 -88zM297 102c77 0 129 59 129 148s-52 148 -129 148c-78 0 -130 -59 -130 -148s52 -148 130 -148z" />
    <glyph glyph-name="g.ss03" horiz-adv-x="601" 
d="M418 441v59h136v-460c0 -157 -102 -255 -262 -255c-138 0 -224 75 -242 178h140c10 -37 48 -61 102 -61c79 0 126 53 126 138v43c-37 -48 -93 -75 -163 -75c-134 0 -229 101 -229 252c0 154 98 255 232 255c69 0 123 -27 160 -74zM299 124c72 0 119 55 119 137
s-47 137 -118 137c-72 0 -119 -55 -119 -137c0 -83 47 -137 118 -137z" />
    <glyph glyph-name="k.ss04" horiz-adv-x="574" 
d="M567 0h-170l-141 198l-63 -65v-133h-145v700h145v-394l185 194h172l-198 -204z" />
    <glyph glyph-name="f.ss05" horiz-adv-x="439" 
d="M427 548h-118c11 36 2 57 -22 57s-35 -21 -35 -57v-48h174v-116h-174v-584h-136v584h-100v116h100v48c0 105 63 167 173 167c116 0 161 -68 138 -167z" />
    <glyph glyph-name="one" unicode="1" horiz-adv-x="450" 
d="M227 700h147v-700h-145v516c-57 -69 -134 -110 -221 -116v127c107 7 191 89 219 173z" />
    <glyph glyph-name="two" unicode="2" horiz-adv-x="621" 
d="M578 461c0 -174 -143 -277 -301 -343h300v-118h-524v114c258 119 376 202 376 343c0 81 -39 136 -117 136c-81 0 -120 -57 -120 -135c0 -48 15 -92 42 -132h-151c-25 39 -40 82 -40 138c0 147 103 251 268 251s267 -105 267 -254z" />
    <glyph glyph-name="three" unicode="3" horiz-adv-x="625" 
d="M469 371c74 -34 113 -92 113 -169c0 -127 -110 -217 -271 -217c-174 0 -290 105 -264 260h149c-18 -79 33 -138 117 -138c71 0 120 41 120 101c0 64 -53 105 -132 105h-54v108h54c62 0 106 35 106 91c0 50 -38 81 -96 81c-69 0 -109 -47 -94 -111h-147
c-25 136 85 233 243 233c142 0 242 -79 242 -195c0 -65 -31 -117 -86 -149z" />
    <glyph glyph-name="four" unicode="4" horiz-adv-x="652" 
d="M526 283h106v-117h-106v-166h-144v166h-362v118c144 116 258 255 327 416h179v-417zM382 283v240c-49 -87 -113 -168 -192 -240h192z" />
    <glyph glyph-name="five" unicode="5" horiz-adv-x="621" 
d="M331 482c153 0 247 -106 247 -244c0 -148 -110 -253 -275 -253c-167 0 -281 108 -255 253h149c-17 -78 29 -131 108 -131s125 54 125 128c0 75 -48 131 -133 131c-50 0 -90 -19 -112 -48l-142 50c34 97 53 226 53 332h448v-118h-316c-4 -48 -10 -92 -19 -133
c33 22 73 33 122 33z" />
    <glyph glyph-name="six" unicode="6" horiz-adv-x="652" 
d="M370 453c142 0 239 -96 239 -228c0 -147 -120 -240 -265 -240c-176 0 -301 134 -301 366c0 231 124 364 313 364c155 0 251 -94 226 -226h-148c16 61 -26 104 -91 104c-91 0 -146 -82 -151 -223c35 49 95 83 178 83zM344 107c67 0 116 47 116 112c0 66 -49 112 -115 112
c-67 0 -116 -47 -116 -114c0 -64 48 -110 115 -110z" />
    <glyph glyph-name="seven" unicode="7" horiz-adv-x="570" 
d="M20 582v118h525v-107c-129 -156 -217 -355 -232 -593h-152c13 215 84 409 220 582h-361z" />
    <glyph glyph-name="eight" unicode="8" horiz-adv-x="615" 
d="M463 381c66 -36 109 -99 109 -179c0 -128 -113 -217 -265 -217c-155 0 -264 89 -264 218c0 81 45 142 110 178c-51 28 -85 74 -85 140c0 109 95 194 239 194c145 0 239 -86 239 -194c0 -65 -33 -111 -83 -140zM308 593c-55 0 -91 -31 -91 -77c0 -49 36 -80 91 -80
c54 0 89 31 89 80c0 46 -35 77 -89 77zM307 107c71 0 116 42 116 107c0 67 -44 111 -115 111c-72 0 -116 -44 -116 -111c0 -65 44 -107 115 -107z" />
    <glyph glyph-name="nine" unicode="9" horiz-adv-x="652" 
d="M308 715c175 0 301 -134 301 -366c0 -231 -126 -364 -304 -364c-153 0 -260 100 -235 225h147c-15 -60 27 -103 92 -103c91 0 146 82 151 224c-35 -50 -94 -84 -178 -84c-142 0 -239 96 -239 228c0 147 119 240 265 240zM307 369c67 0 116 47 116 114
c0 65 -49 110 -116 110c-66 0 -115 -47 -115 -113c0 -65 48 -111 115 -111z" />
    <glyph glyph-name="four.ss09" horiz-adv-x="652" 
d="M526 253h106v-118h-106v-135h-144v135h-362v119c177 118 255 271 271 446h146c-15 -186 -84 -332 -226 -447h171v121h144v-121z" />
    <glyph glyph-name="period" unicode="." horiz-adv-x="240" 
d="M121 -11c-51 0 -88 37 -88 87s37 88 88 88c49 0 86 -38 86 -88s-37 -87 -86 -87z" />
    <glyph glyph-name="comma" unicode="," horiz-adv-x="252" 
d="M123 163c51 0 97 -35 97 -115c0 -99 -72 -183 -163 -200v69c46 12 78 47 90 87c-10 -4 -20 -6 -32 -6c-48 0 -82 35 -82 82c0 48 38 83 90 83z" />
    <glyph glyph-name="uniF8FF" unicode="&#xf8ff;" horiz-adv-x="852" 
d="M76 0v700h700v-700h-700zM569 252c84 0 145 39 145 111c0 141 -226 75 -226 166c0 42 33 60 79 60c58 0 80 -28 86 -68h50c-1 78 -59 112 -136 112c-65 0 -133 -32 -133 -105c0 -142 226 -73 226 -170c0 -47 -46 -61 -87 -61c-55 0 -94 25 -94 75h-53
c1 -85 66 -120 143 -120zM145 259h252v46h-199v119h186v45h-186v111h196v47h-249v-368z" />
    </font>
</defs>
</svg>
